Присоединяйтесь к нам в Telegram!, здесь всегда актуальный адрес сайта, оперативная поддержка и многое другое!!

>

5.9

iTunes

7.4

iTunes

9.4

1 сезон

1

7.4

2 сезон

7.2

iTunes

7.3

1 сезон

13

6.1

iTunes

8.3

GOG

30

ULTIMATE

pack

9.9

Лицензия

ВАЖНО

ИГРА 18+

pack

7.3

RePack

MK11

7.7

RePack

jed

7.8

RePack

fifa19

8.5

RePack

RDR2

RePack

NEED FOR SPEED™ PAYBACK

5 сезон

9 сезон

Бесстыжие 9 сезон

Все сериалы

все сериалы на PB.wtf

RePack

FAR CRY 5

Anonymous, доброй ночи, мы катастрофически не успеваем собрать деньги на оплату серверов, помогите нам пожалуйста 5,10,15р., для нас важна любая помощь . В качестве благодарности мы отключим Вам всю рекламу на сайте (укажите свой ник в строку Ваше имя)!

×
  
Magnet ссылка

Конец света инкорпорейтед / End of Days, Inc. (Дженнифер Лиао) [2015, фантастика, комедия, HDRip] Любительский (одноголосый) [BadBajo] piratbit.org

Конец света инкорпорейтед через торрент piratbit.org

Размер: 1.34 GB | Добавлен: 5 лет назад | Торрент скачан:492 раза
Смотреть онлайн Конец света инкорпорейтед | Скачать    Ребята, помогите собрать деньги на оплату серверов!!!

01-11-2016 16:34 Конец света инкорпорейтед Скачать торрент  

Конец света инкорпорейтед / End of Days, Inc.
««The devil is in the details»»


Год выпуска: 2015
Страна: Канада
Жанр: фантастика, комедия

Продолжительность: 01:22:22
Перевод: Любительский (одноголосый) [BadBajo]
Режиссер: Дженнифер Лиао
В ролях:

Марк О’Брайэн (Jason), Паулино Нюнс (Mr. Godfrey), Carolyne Maraghi (Janet), Пол Сун-Хюнг Ли (Mort), Джанет Портер (Misty), Анна Фергюсон (Esther), Юлия Пятраускас (Oola), Марк Робинсон (Rico), Луис Фернандес (Lloyd), Джон Уотсон (News Anchor), Джули Лемье (Nana, озвучка), Карен Глэйв (Various, озвучка)
Описание:
Приходилось ли вам задерживаться на работе? А в последний рабочий день? А за миллион долларов? Нелегкий выбор встал перед героями этого фильма. А когда выбор был сделан, осталось лишь дожить до утра...
Мировая премьера: 24 апреля 2015

Качество: HDRip

Формат: AVI
Видео: xvid, 720x304 (2.35:1), 1548 kbps, 23.976 fps, 0.295 bpp
Аудио №1: русский / AC3 / 5.1 / 48 kHz / 384 kbps / 16 bit
Аудио №2: английский / AC3 / 5.1 / 48 kHz / 384 kbps / 16 bit

Video
ID : 0
Format : xvid
Codec ID : xvid
Duration : 1 h 22 min
Bit rate : 1 548 kb/s
Width : 720 pixels
Height : 304 pixels
Display aspect ratio : 2.35:1
Frame rate : 23.976 FPS
Scan type : Progressive
Bits/(Pixel*Frame) : 0.295
Stream size : 912 MiB (66%)

Audio #1
ID : 1
Format : AC-3
Format/Info : Audio Coding 3
Mode extension : CM (complete main)
Format settings, Endianness : Big
Codec ID : 2000
Duration : 1 h 22 min
Bit rate mode : Constant
Bit rate : 384 kb/s
Channel(s) : 6 channels
Channel positions : Front: L C R, Side: L R, LFE
Sampling rate : 48.0 kHz
Frame rate : 31.250 FPS (1536 spf)
Bit depth : 16 bits
Compression mode : Lossy
Stream size : 226 MiB (16%)
Alignment : Aligned on interleaves
Interleave, duration : 32 ms (0.77 video frame)

Audio #2
ID : 2
Format : AC-3
Format/Info : Audio Coding 3
Mode extension : CM (complete main)
Format settings, Endianness : Big
Codec ID : 2000
Duration : 1 h 22 min
Bit rate mode : Constant
Bit rate : 384 kb/s
Channel(s) : 6 channels
Channel positions : Front: L C R, Side: L R, LFE
Sampling rate : 48.0 kHz
Frame rate : 31.250 FPS (1536 spf)
Bit depth : 16 bits
Compression mode : Lossy
Stream size : 226 MiB (16%)
Alignment : Aligned on interleaves
Interleave, duration : 32 ms (0.77 video frame)

© Оформление by White Smoke piratbit.org



Скачать Конец света инкорпорейтед через торрент http://i5.imageban.ru/out/2016/11/01/f78a889154bb807288d6c11073f1175f.jpg Скачать, смотреть онлайн Конец света инкорпорейтед бесплантно в хорошем качестве Описание: Приходилось ли вам задерживаться на работе? А в последний рабочий день? А за миллион долларов? Нелегкий выбор встал перед героями ... 9.9 10 12
Info! Золотая раздача, скачанное не засчитывается.
Торрент: Зарегистрирован [2016-11-01 16:34] · скачан: 492 раз
Статус: T временная
Размер: 1.34 GB
Как cкачать? Как скачать Конец света инкорпорейтед через торрент | UTorrent



Последний раз редактировалось: PsYcho (2016-11-01 20:25), всего редактировалось 1 раз

28-11-2019 20:33  

Отключить всю рекламу на сайте

01-11-2016 16:57 Конец света инкорпорейтед Скачать торрент  

как оно,гайз,стоит смотреть?piratbit.org



01-11-2016 17:56 Конец света инкорпорейтед Скачать торрент  

Отзовитесь как фильм! Описание заманчивое!piratbit.org



01-11-2016 18:07 Конец света инкорпорейтед Скачать торрент  

смотрите уже, бывает очень не плохие фильмы получаются.piratbit.org



01-11-2016 22:30 Конец света инкорпорейтед Скачать торрент  

40 скачек, и ни одного ответа, стоит лиpiratbit.org



02-11-2016 19:47 Конец света инкорпорейтед Скачать торрент  

Eiden25 писал(а):

40 скачек, и ни одного ответа, стоит ли

скачан: 171 раз, и ни одного ответа, стоит лиpiratbit.org



03-11-2016 10:01 Конец света инкорпорейтед Скачать торрент  

скачан: 202 раз и ни одного ответа, стоит ли piratbit.org



03-11-2016 20:33 Конец света инкорпорейтед Скачать торрент  

походу ни у кого из тех кто скачал не стоит,)piratbit.org



04-11-2016 10:18 Конец света инкорпорейтед Скачать торрент  

норм, торантиновский стильpiratbit.org



04-11-2016 14:07 Конец света инкорпорейтед Скачать торрент  

не знаю насчет тарантиновского стиля, судя по трейлеру - полная чушь. скачать-то скачал, теперь не знаю, стоит ли время на просмотр тратить... нафига блин трейлер смотрел((piratbit.org



11-11-2016 15:25 Конец света инкорпорейтед Скачать торрент  

Dankada писал(а):

как оно,гайз,стоит смотреть?

да стоит крутой артpiratbit.org



12-11-2016 12:49 Конец света инкорпорейтед Скачать торрент  

tamburetko писал(а):

не знаю насчет тарантиновского стиля, судя по трейлеру - полная чушь. скачать-то скачал, теперь не знаю, стоит ли время на просмотр тратить... нафига блин трейлер смотрел((

А на кинопоиск слабо залезть? Трейлеры глянуть, отзывы почитать? И что за проблема сразу скачать и посмотреть, сейчас у всех безлимит за 300 рублей, 3-5 гигов (а для меня даже 50) роли не играют. Вот моя статистика за месяц (последние 31 день): отдано 1,74 ТБ, скачано 998 ГБ. Кто не верит, могу скрин прислать.piratbit.org



26-01-2017 20:24 Конец света инкорпорейтед Скачать торрент  

стоит,забавныйpiratbit.org



    Дорогой пользователь! Огромная просьба, поблагодарите релизера, оцените раздачу и оставьте свои комментарий, если Вы скачали Конец света инкорпорейтед через торрент бесплатно!
    Комментировать посты могут только пользователи прошедшие не сложную регистрацию
    Показать сообщения:    

    Конец света инкорпорейтед через торрент
    Скачать бесплатно Конец света инкорпорейтед
    Конец света инкорпорейтед скачать торрент
    Конец света инкорпорейтед смотреть онлайн
    Cкачать фильм Конец света инкорпорейтед бесплатно
    Конец света инкорпорейтед скачать торрент в хорошем качестве
    Конец света инкорпорейтед смотреть онлайн бесплатно в хорошем качестве


    Вы не можете начинать темы
    Вы не можете отвечать на сообщения
    Вы не можете редактировать свои сообщения
    Вы не можете удалять свои сообщения
    Вы не можете голосовать в опросах
    Вы не можете прикреплять файлы к сообщениям
    Вы можете скачивать файлы