1 сезон

3 сезон

iTunes

1

iTunes

DUB Netflix

iTunes

13

1 сезон

RePack

30

Deluxe

pack

Легкие деньги

ВАЖНО

ИГРА 18+

pack

RePack

MK11

RePack

jed

RePack

fifa19

RePack

RDR2

RePack

NEED FOR SPEED™ PAYBACK

4 сезон

9 сезон

Бесстыжие 9 сезон

Все сериалы

все сериалы на PB.wtf

RePack

FAR CRY 5

Anonymous, добрый день, мы не успеваем до 1 числа собрать деньги на оплату серверов, помогите нам пожалуйста в это трудное время. В качестве благодарности мы отключим Вам всю рекламу на сайте (укажите свой ник в строку Ваше имя)!

×
  
Magnet ссылка

Хроники мстителя / Vigilante Diaries (Кристиан Сесма) [2016, боевик, BDRip, Дублированный [iTunes] piratbit.org

Хроники мстителя через торрент piratbit.org

Размер: 2.06 GB | Добавлен: 4 года 7 мес. назад | Торрент скачан:780 раз
Скачать  

01-11-2016 21:25 Хроники мстителя Скачать торрент  

Хроники мстителя / Vigilante Diaries
««Преступность не остановить. Их тоже»»


Год выпуска: 2016
Страна: США
Жанр: боевик

Продолжительность: 02:03:47
Перевод: Дублированный [iTunes]
Режиссер: Кристиан Сесма
В ролях:

Джейсон Мьюз (Michael Hanover), Куинтон Джексон (Wolfman), Пол Слоун (The Vigilante), Кевин Л. Уокер (The Kid), Майкл Джей Уайт (Barrington), Майкл Мэдсен (Moreau), Майк Хаттон (Barry), Джеймс Руссо (Mr. Hanover), Арман Ншанян (Andreas), Сальвадор Герерро мл. (Tex-Mex), Чести Бальестерос (Raven), Джессика Уберуага (Red)
Описание:
Команда крутых спецагентов, опасных, взрывных, ироничных, с богатым чувством юмора, объединяется под началом загадочного Мстителя для борьбы с мировой преступностью.
Мировая премьера: 4 февраля 2016

Качество: BDRip

Формат: AVI
Видео: XviD, 720x304 (2.40:1), 1821 kbps, 23.976 fps, 0.347 bpp
Аудио №1: AC3 / 5.1 / 48 kHz / 384 kbps / 16 bit
Аудио №2: AC3 / 5.1 / 48 kHz / 448 kbps / 16 bit

Video
ID : 0
Format : MPEG-4 Visual
Format profile : Advanced Simple@L5
Format settings, BVOP : 2
Format settings, QPel : No
Format settings, GMC : No warppoints
Format settings, Matrix : Default (H.263)
Codec ID : XVID
Codec ID/Hint : XviD
Duration : 1 h 47 min
Bit rate : 1 822 kb/s
Width : 720 pixels
Height : 304 pixels
Display aspect ratio : 2.40:1
Frame rate : 23.976 (24000/1001) FPS
Color space : YUV
Chroma subsampling : 4:2:0
Bit depth : 8 bits
Scan type : Progressive
Compression mode : Lossy
Bits/(Pixel*Frame) : 0.347
Stream size : 1.37 GiB (67%)
Writing library : XviD 64

Audio #1
ID : 1
Format : AC-3
Format/Info : Audio Coding 3
Mode extension : CM (complete main)
Format settings, Endianness : Big
Codec ID : 2000
Duration : 1 h 47 min
Bit rate mode : Constant
Bit rate : 384 kb/s
Channel(s) : 6 channels
Channel positions : Front: L C R, Side: L R, LFE
Sampling rate : 48.0 kHz
Frame rate : 31.250 FPS (1536 spf)
Bit depth : 16 bits
Compression mode : Lossy
Stream size : 296 MiB (14%)
Alignment : Aligned on interleaves
Interleave, duration : 32 ms (0.77 video frame)
Title : iTunes

Audio #2
ID : 2
Format : AC-3
Format/Info : Audio Coding 3
Mode extension : CM (complete main)
Format settings, Endianness : Big
Codec ID : 2000
Duration : 2 h 3 min
Bit rate mode : Constant
Bit rate : 448 kb/s
Channel(s) : 6 channels
Channel positions : Front: L C R, Side: L R, LFE
Sampling rate : 48.0 kHz
Frame rate : 31.250 FPS (1536 spf)
Bit depth : 16 bits
Compression mode : Lossy
Stream size : 397 MiB (19%)
Alignment : Aligned on interleaves
Interleave, duration : 28 ms (0.67 video frame)

© Оформление by White Smoke piratbit.org



Скачать Хроники мстителя через торрент http://i5.imageban.ru/out/2016/11/02/c8898532c0cc096123446072d6a458c3.jpg Скачать фильм Хроники мстителя через торрент бесплантно в хорошем качестве Описание: Команда крутых спецагентов, опасных, взрывных, ироничных, с богатым чувством юмора, объединяется под началом загадочного Мстителя ... 9.4 10 19
Торрент: Зарегистрирован [2016-11-01 21:25] · скачан: 780 раз
Статус: √ проверено
Размер: 2.06 GB
Как cкачать? Как скачать Хроники мстителя через торрент | UTorrent

% Раздел Тема Автор DL S | L
Фильмы (Blu-ray, BD-Remux, HDDVD) [ 19.03 GB ] Хроники мстителя / Vigilante Diaries [2016 BD Remux 1080p] bober100 Скачать
1 | 0
Фильмы 2016 [DVDrip, WEB-DLRip, HDrip] (DUB, MVO) [ 746 MB ] Хроники мстителя / Vigilante Diaries [2016 BDRip] bober100 Скачать
1 | 0
Фильмы 2016 [DVDrip, WEB-DLRip, HDrip] (DUB, MVO) [ 2.17 GB ] Хроники мстителя / Vigilante Diaries [2016 HDRip ""] coc900 Скачать
1 | 0
Фильмы 2016 [DVDrip, WEB-DLRip, HDrip] (DUB, MVO) [ 1.37 GB ] Хроники мстителя / Vigilante Diaries [2016 HDRip / ] Ворон Скачать
1 | 0

28-11-2019 20:33  

Отключить всю рекламу на сайте

02-11-2016 07:36 Хроники мстителя Скачать торрент  

а почему нет Николаса Кейджа?)))))))piratbit.org



09-11-2016 20:35 Хроники мстителя Скачать торрент  

Bink писал(а):

а почему нет Николаса Кейджа?)))))))

в голос!!piratbit.org



    Дорогой пользователь! Огромная просьба, поблагодарите релизера, оцените раздачу и оставьте свои комментарий, если Вы скачали Хроники мстителя через торрент бесплатно! Внесите свою лепту в развитие PiratBit!
    Комментировать посты могут только пользователи прошедшие не сложную регистрацию
    Показать сообщения:    

    Хроники мстителя через торрент
    Скачать бесплатно Хроники мстителя
    Хроники мстителя скачать торрент
    Хроники мстителя смотреть онлайн
    Cкачать фильм Хроники мстителя бесплатно
    Хроники мстителя скачать торрент в хорошем качестве
    Хроники мстителя смотреть онлайн бесплатно в хорошем качестве


    Вы не можете начинать темы
    Вы не можете отвечать на сообщения
    Вы не можете редактировать свои сообщения
    Вы не можете удалять свои сообщения
    Вы не можете голосовать в опросах
    Вы не можете прикреплять файлы к сообщениям
    Вы можете скачивать файлы