1 сезон

3 сезон

iTunes

1

iTunes

DUB Netflix

iTunes

13

1 сезон

RePack

30

Deluxe

pack

Легкие деньги

ВАЖНО

ИГРА 18+

pack

RePack

MK11

RePack

jed

RePack

fifa19

RePack

RDR2

RePack

NEED FOR SPEED™ PAYBACK

4 сезон

9 сезон

Бесстыжие 9 сезон

Все сериалы

все сериалы на PB.wtf

RePack

FAR CRY 5

Anonymous, добрый день, мы не успеваем до 1 числа собрать деньги на оплату серверов, помогите нам пожалуйста в это трудное время. В качестве благодарности мы отключим Вам всю рекламу на сайте (укажите свой ник в строку Ваше имя)!

×
  
Magnet ссылка

В тихом омуте / Ma Loute (Брюно Дюмон) [2016, комедия, HDRip, Дублированный [iTunes] piratbit.org

В тихом омуте через торрент piratbit.org

Размер: 1.37 GB | Добавлен: 4 года 7 мес. назад | Торрент скачан:233 раза
Скачать  

02-11-2016 14:06 В тихом омуте Скачать торрент  

В тихом омуте / Ma Loute


Год выпуска: 2016
Страна: Франция
Жанр: комедия

Продолжительность: 02:03:05
Перевод: Дублированный [iTunes]
Режиссер: Брюно Дюмон
В ролях:

Фабрис Лукини (André Van Peteghem), Жюльет Бинош (Aude Van Peteghem), Валерия Бруни-Тедески (Isabelle Van Peteghem), Жан-Люк Винсент (Christian Van Peteghem), Брандон Лавьевиль (Ma Loute Brufort), Ральф (Billie Van Peteghem), Дидье Депре (Alfred Machin), Сирил Риго (Malfoy), Лаура Дюпре (Nadège), Тьерри Лавьевиль (L'Eternel Brufort), Кэролайн Карбоннье (La mère Brufort), Манон Руайер (Blanche Van Peteghem)
Описание:
Лето 1910 года. Один за другим исчезают туристы, забредающие в тихую бухту, где живут Брефоры - дебильноватая полунищая семейка собирателей мидий. Неподалеку в собственном особняке каждое лето проводят ван Петегемы, буржуа с претензией на декаданс, но с явными признаками психических отклонений у всех членов семьи, за исключением красавицы Билли. Да и с ней, собственно, что-то не так. Семейки явно недолюбливают друг друга, но юные Малют Брефор и Билли ван Петегем внезапно ощущают влечение друг к другу. История усугубляется тем, что Брефоры - каннибалы, втихую поедающие одиноких путников (на одних мидиях долго не протянешь), а ван Петегемы - просто идиоты! Свою долю хаоса добавляют придурковатые инспекторы Машан и Малфой, прибывшие расследовать таинственные исчезновения.
Мировая премьера: 13 мая 2016

Качество: HDRip

Формат: AVI
Видео: XviD, 720x304 (2.35:1), 1197 kbps, 23.976 fps, 0.228 bpp
Аудио: AC3 / 5.1 / 48 kHz / 384 kbps /

Video
ID : 0
Format : MPEG-4 Visual
Format profile : Advanced Simple@L5
Format settings, BVOP : 2
Format settings, QPel : No
Format settings, GMC : No warppoints
Format settings, Matrix : Default (MPEG)
Codec ID : XVID
Codec ID/Hint : XviD
Duration : 2 h 3 min
Bit rate : 1 197 kb/s
Width : 720 pixels
Height : 304 pixels
Display aspect ratio : 2.35:1
Frame rate : 23.976 (24000/1001) FPS
Color space : YUV
Chroma subsampling : 4:2:0
Bit depth : 8 bits
Scan type : Progressive
Compression mode : Lossy
Bits/(Pixel*Frame) : 0.228
Stream size : 1.03 GiB (75%)
Writing library : XviD 1.2.1 (UTC 2008-12-04)

Audio
ID : 1
Format : AC-3
Format/Info : Audio Coding 3
Mode extension : CM (complete main)
Format settings, Endianness : Big
Codec ID : 2000
Duration : 2 h 3 min
Bit rate mode : Constant
Bit rate : 384 kb/s
Channel(s) : 6 channels
Channel positions : Front: L C R, Side: L R, LFE
Sampling rate : 48.0 kHz
Frame rate : 31.250 FPS (1536 spf)
Compression mode : Lossy
Stream size : 338 MiB (24%)
Alignment : Split accross interleaves
Interleave, duration : 42 ms (1.00 video frame)
Interleave, preload duration : 500 ms

© Оформление by White Smoke piratbit.org



Скачать В тихом омуте через торрент http://i2.imageban.ru/out/2016/11/02/e995d6731c0bdefae49da347aca7436e.png Скачать фильм В тихом омуте через торрент бесплантно в хорошем качестве Описание: Лето 1910 года. Один за другим исчезают туристы, забредающие в тихую бухту, где живут Брефоры - дебильноватая полунищая семейка ... 9 10 11
Торрент: Зарегистрирован [2016-11-02 14:06] · скачан: 233 раз
Статус: √ проверено
Размер: 1.37 GB
Как cкачать? Как скачать В тихом омуте через торрент | UTorrent

% Раздел Тема Автор DL S | L
Фильмы [HD 720p, 1080p] (Хороший звук DUB, MVO) [ 10.4 GB ] В тихом омуте / Ma Loute [2016 BDRip 1080p] bober100 Скачать
1 | 0
Фильмы [HD 720p, 1080p] (Хороший звук DUB, MVO) [ 5.29 GB ] В тихом омуте / Ma Loute [2016 BDRip 720p] bober100 Скачать
1 | 0
Фильмы 2016 [DVDrip, WEB-DLRip, HDrip] (DUB, MVO) [ 2.05 GB ] В тихом омуте / Ma Loute [2016 HDRip] killermax2013 Скачать
1 | 0
Фильмы (Blu-ray, BD-Remux, HDDVD) [ 20.02 GB ] В тихом омуте / Ma Loute [2016 Blu-Ray Remux 1080p] killermax2013 Скачать
1 | 0

28-11-2019 20:33  

Отключить всю рекламу на сайте

02-11-2016 14:18 В тихом омуте Скачать торрент  

бредятина еще та-досмотрел-но мозг вынесло-семья разбежалась на первом часу просмотра-все испытали шок от этого авангардизма в киноpiratbit.org



25-11-2016 06:57 В тихом омуте Скачать торрент  

Забавный фильм. Бредовый, но не плохой)piratbit.org



12-02-2017 12:36 В тихом омуте Скачать торрент  

Что-то подобное уже было. Называется "красный отель", там путников просто убивают. В общем вторично это.piratbit.org



12-02-2017 12:46 В тихом омуте Скачать торрент  

Каким-то чудом просмотрел сие творение-комедию. Странный фильм. С одной стороны держал,со второй отталкивал. Любопытсво победило ) фильм на любителя конечно.piratbit.org



    Дорогой пользователь! Огромная просьба, поблагодарите релизера, оцените раздачу и оставьте свои комментарий, если Вы скачали В тихом омуте через торрент бесплатно! Внесите свою лепту в развитие PiratBit!
    Комментировать посты могут только пользователи прошедшие не сложную регистрацию
    Показать сообщения:    

    В тихом омуте через торрент
    Скачать бесплатно В тихом омуте
    В тихом омуте скачать торрент
    В тихом омуте смотреть онлайн
    Cкачать фильм В тихом омуте бесплатно
    В тихом омуте скачать торрент в хорошем качестве
    В тихом омуте смотреть онлайн бесплатно в хорошем качестве


    Вы не можете начинать темы
    Вы не можете отвечать на сообщения
    Вы не можете редактировать свои сообщения
    Вы не можете удалять свои сообщения
    Вы не можете голосовать в опросах
    Вы не можете прикреплять файлы к сообщениям
    Вы можете скачивать файлы