Лицензия

MVO

1

1 сезон

Лицензия

Лицензия

13

MVO

1 сезон

Deluxe Edition

pack

Рекомендуем

30

Repack

ВАЖНО

ВАЖНО

Ghostwire

RePack

jed

RePack

fifa19

RePack

RDR2

RePack

NEED FOR SPEED™ PAYBACK

RePack

Кинопоиск HD

 Острые козырьки 6 сезон

6 сезон

FAR CRY 6

RePack

Лицензия

MVO

1

1 сезон

1 сезон

Лицензия

  

Наш двор (Резо Чхеидзе) [1956, СССР, драма, мелодрама, комедия, SATRip-AVC от AVP Studio]

Наш двор через торрент piratbit.org

Размер: 1.09 GB | Добавлен: 5 лет 10 мес. назад | Торрент скачан:46 раз
Смотреть онлайн Наш двор | Скачать   

03-11-2016 08:36 Наш двор Скачать торрент  

Наш двор
Страна: СССР
Производство: Грузия-фильм

Жанр: драма, мелодрама, комедия
Год выпуска: 1956
Продолжительность: 01:25:39

Перевод: Не требуется
Cубтитры: нет
Оригинальная аудиодорожка: русский

Режиссер: Резо Чхеидзе

В ролях:
Софико Чиаурели, Георгий Шенгелая, Лейла Абашидзе, Леван Пилпани, Гоча Абашидзе, Дудухана Церодзе, Акакий (Како) Кванталиани, Сесилия Такаишвили, Нодар Пиранишвили, Коте Мгалоблишвили, Заза Гудавадзе, Тамара Абашидзе, Нина Давиташвили, Читолия Чхеидзе...
Полный список актёров

Описание:
Лирическая повесть о жителях одного тбилисского двора, где люди живут, разделяя радости и печали друг друга.

Источник: DVB
Качество видео: SATRip-AVC
Формат видео: MKV

Видео: 688->760x570 (4:3), 25 fps, H264 ~ 1626 kbps avg, 0.166 bit/pixel
Аудио: 48 kHz, Dolby Digital AC3 2.0, 192 kbps

Раздача от:
Общее
Полное имя : Nash.dvor.1956.SATRip-AVC_[New-team]_by_AVP_Studio.mkv
Формат : Matroska
Версия формата : Version 2
Размер файла : 1,09 Гбайт
Продолжительность : 1 ч. 25 м.
Общий поток : 1820 Кбит/сек
Дата кодирования : UTC 2016-11-01 13:32:43
Программа кодирования : mkvmerge v6.1.0 ('Old Devil') built on Mar 4 2013 09:10:42
Библиотека кодирования : libebml v1.3.0 + libmatroska v1.4.0

Видео
Идентификатор : 1
Формат : AVC
Формат/Информация : Advanced Video Codec
Профиль формата : High@L4.1
Параметр CABAC формата : Да
Параметр ReFrames формата : 10 кадров
Идентификатор кодека : V_MPEG4/ISO/AVC
Продолжительность : 1 ч. 25 м.
Битрейт : 1626 Кбит/сек
Ширина : 688 пикселей
Высота : 570 пикселей
Соотношение сторон : 4:3
Режим частоты кадров : Постоянный
Частота кадров : 25,000 кадров/сек
Цветовое пространство : YUV
Субдискретизация насыщенности : 4:2:0
Битовая глубина : 8 бит
Тип развёртки : Прогрессивная
Бит/(Пиксели*Кадры) : 0.166
Размер потока : 975 Мбайт (87%)
Библиотека кодирования : x264 core 148 r2597 e86f3a1
Настройки программы : cabac=1 / ref=10 / deblock=1:-2:-1 / analyse=0x3:0x113 / me=umh / subme=10 / psy=1 / psy_rd=1.00:0.00 / mixed_ref=1 / me_range=32 / chroma_me=1 / trellis=2 / 8x8dct=1 / cqm=0 / deadzone=21,11 / fast_pskip=1 / chroma_qp_offset=-2 / threads=6 / lookahead_threads=1 / sliced_threads=0 / nr=0 / decimate=0 / interlaced=0 / bluray_compat=0 / constrained_intra=0 / bframes=8 / b_pyramid=2 / b_adapt=2 / b_bias=0 / direct=3 / weightb=1 / open_gop=0 / weightp=2 / keyint=250 / keyint_min=25 / scenecut=40 / intra_refresh=0 / rc=2pass / mbtree=0 / bitrate=1626 / ratetol=1.0 / qcomp=0.60 / qpmin=0 / qpmax=69 / qpstep=4 / cplxblur=20.0 / qblur=0.5 / ip_ratio=1.40 / pb_ratio=1.30 / aq=1:1.00
Default : Да
Forced : Нет

Аудио
Идентификатор : 2
Формат : AC-3
Формат/Информация : Audio Coding 3
Расширение режима : CM (complete main)
Параметр Endianness формата : Big
Идентификатор кодека : A_AC3
Продолжительность : 1 ч. 25 м.
Вид битрейта : Постоянный
Битрейт : 192 Кбит/сек
Каналы : 2 канала
Расположение каналов : Front: L R
Частота : 48,0 КГц
Частота кадров : 31,250 кадров/сек (1536 spf)
Метод сжатия : С потерями
Размер потока : 118 Мбайт (11%)
Default : Да
Forced : Нет



Скачать Наш двор через торрент http://i045.radikal.ru/1611/b5/e698694d951f.png Скачать, смотреть онлайн Наш двор бесплантно в хорошем качестве Описание:Лирическая повесть о жителях одного тбилисского двора, где люди живут, разделяя радости и печали друг друга. Источник: ... 10 10 1
Info! Золотая раздача, скачанное не засчитывается.
Торрент: Зарегистрирован [2016-11-03 08:36] · скачан: 46 раз
Статус: √ проверено
Размер: 1.09 GB
Как cкачать? Как скачать Наш двор через торрент | UTorrent

% Раздел Тема Автор DL S | L
Кино СССР [ 1.09 GB ] Наш двор | | SATRip от AVP Studio AVP Studio Скачать
1 | 0

28-11-2019 20:33  

Отключить вcю реклaмy на сайте

03-11-2016 14:06 Наш двор Скачать торрент  

спасибо тебе что ты делаешь такие релизы.



    Дорогой пользователь! Огромная просьба, поблагодарите релизера, оцените раздачу и оставьте свои комментарий, если Вы скачали Наш двор через торрент бесплатно!!
    Комментировать посты могут только пользователи прошедшие не сложную регистрацию
    Показать сообщения:    


    Наш двор через торрент
    Скачать бесплатно Наш двор
    Наш двор скачать торрент
    Наш двор смотреть онлайн
    Cкачать фильм Наш двор бесплатно
    Наш двор скачать торрент в хорошем качестве
    Наш двор смотреть онлайн бесплатно в хорошем качестве
    Вы не можете начинать темы
    Вы не можете отвечать на сообщения
    Вы не можете редактировать свои сообщения
    Вы не можете удалять свои сообщения
    Вы не можете голосовать в опросах
    Вы не можете прикреплять файлы к сообщениям
    Вы можете скачивать файлы