1 сезон

3 сезон

iTunes

1

iTunes

DUB Netflix

iTunes

13

1 сезон

RePack

30

Deluxe

pack

Легкие деньги

ВАЖНО

ИГРА 18+

pack

RePack

MK11

RePack

jed

RePack

fifa19

RePack

RDR2

RePack

NEED FOR SPEED™ PAYBACK

4 сезон

9 сезон

Бесстыжие 9 сезон

Все сериалы

все сериалы на PB.wtf

RePack

FAR CRY 5

Anonymous, добрый день, мы не успеваем до 1 числа собрать деньги на оплату серверов, помогите нам пожалуйста в это трудное время. В качестве благодарности мы отключим Вам всю рекламу на сайте (укажите свой ник в строку Ваше имя)!

×
  
Magnet ссылка

Каменные кулаки / Hands of Stone (Хонатан Якубович) [2016, боевик, драма, биография, HDRip] Любительский [многоголосый] piratbit.org

Каменные кулаки через торрент piratbit.org

Размер: 1.46 GB | Добавлен: 4 года 7 мес. назад | Торрент скачан:774 раза
Скачать  

04-11-2016 10:56 Каменные кулаки Скачать торрент  


Каменные кулаки / Hands of Stone
««No mas. No surrender»»

ИНФОРМАЦИЯ:
Год выпуска:2016
Страна: Панама, США
Жанр: боевик, драма, биография, спорт
Продолжительность: 01:50:53
Перевод: Любительский [многоголосый]
Режиссер: Хонатан Якубович

В Ролях:


Эдгар Рамирес (Roberto Durán), Роберт Де Ниро (Ray Arcel), Ашер Рэймонд (Sugar Ray Leonard), Рубен Бладес (Carlos Eleta), Ана де Армас (Felicidad Iglesias), Педро Перез (Plomo), Рег Э. Кэти (Don King), Джон Туртурро (Frankie Carbo), Эллен Баркин (Stephanie Arcel), David Arosemena (Kid Duran), Оскар Хаэнада (Chaflan), Джерни Смоллетт (Juanita Leonard)

ОПИСАНИЕ:
Картина расскажет о легендарном боксёре в лёгком весе Роберто «Каменные кулаки» Дюране. В фильме будет уделено внимание как личной жизни Дюрана, так и его карьере - в частности, боям с легендарным Шугаром Рэем Леонардом.

  • Мировая премьера:16 мая 2016
    rating
    ТЕХ.ДАННЫЕ:
    Качество: HDRip
    Формат: AVI
    Видео: XviD, 720x304 (2.35:1), 1680 kbps, 23,976 fps, 0,320 bpp
    Аудио: AC3 / 2.0 / 48 kHz / 192 kbps /


    General
    Complete name : W:\Раздачи\Игры\Hands.of.Stone.2016.P.HDRip.14OOMB_.avi
    Format : AVI
    Format/Info : Audio Video Interleave
    File size : 1.46 GiB
    Duration : 1 h 50 min
    Overall bit rate : 1 882 kb/s
    Writing application : VirtualDubMod 1.5.10.2 (build 2540/release)
    Writing library : VirtualDubMod build 2540/release

    Video
    ID : 0
    Format : MPEG-4 Visual
    Format profile : Advanced Simple@L5
    Format settings, BVOP : 2
    Format settings, QPel : No
    Format settings, GMC : No warppoints
    Format settings, Matrix : Custom
    Codec ID : XVID
    Codec ID/Hint : XviD
    Duration : 1 h 50 min
    Bit rate : 1 680 kb/s
    Width : 720 pixels
    Height : 304 pixels
    Display aspect ratio : 2.35:1
    Frame rate : 23.976 (24000/1001) FPS
    Color space : YUV
    Chroma subsampling : 4:2:0
    Bit depth : 8 bits
    Scan type : Progressive
    Compression mode : Lossy
    Bits/(Pixel*Frame) : 0.320
    Stream size : 1.30 GiB (89%)
    Writing library : XviD 1.2.1 (UTC 2008-12-04)

    Audio
    ID : 1
    Format : AC-3
    Format/Info : Audio Coding 3
    Mode extension : CM (complete main)
    Format settings, Endianness : Big
    Codec ID : 2000
    Duration : 1 h 50 min
    Bit rate mode : Constant
    Bit rate : 192 kb/s
    Channel(s) : 2 channels
    Channel positions : Front: L R
    Sampling rate : 48.0 kHz
    Frame rate : 31.250 FPS (1536 spf)
    Compression mode : Lossy
    Stream size : 152 MiB (10%)
    Alignment : Split accross interleaves
    Interleave, duration : 42 ms (1.00 video frame)
    Interleave, preload duration : 500 ms
    Скриншоты:

    © Оформление by .::Ворон::.
    piratbit.org



  • Скачать Каменные кулаки через торрент https://pic1.kartinco.top/images/61/ordi9.jpg Скачать фильм Каменные кулаки через торрент бесплантно в хорошем качестве Е:Картина расскажет о легендарном боксёре в лёгком весе Роберто «Каменные кулаки» Дюране. В фильме будет уделено внимание как личной жизни ... 9.7 10 19
    Info! Золотая раздача, скачанное не засчитывается.
    Торрент: Зарегистрирован [2016-11-04 10:56] · скачан: 774 раз
    Статус: T временная
    Размер: 1.46 GB
    Как cкачать? Как скачать Каменные кулаки через торрент | UTorrent

    % Раздел Тема Автор DL S | L
    Фильмы без перевода [ 23.46 GB ] Каменные кулаки / Hands of Stone [2016 биография BD Remux] [Оригинал] smaster Скачать
    1 | 0
    Фильмы без перевода [ 1.61 GB ] Каменные кулаки / Hands of Stone [2016 биография BDRip] [ENG] killermax2013 Скачать
    1 | 0

    28-11-2019 20:33  

    Отключить всю рекламу на сайте

    04-11-2016 11:03 Каменные кулаки Скачать торрент  

    rating
    У нас новые свои информеры shuller постарался piratbit.org



    04-11-2016 17:11 Каменные кулаки Скачать торрент  

    Режиссер: Хонатан Якубович piratbit.org



      Дорогой пользователь! Огромная просьба, поблагодарите релизера, оцените раздачу и оставьте свои комментарий, если Вы скачали Каменные кулаки через торрент бесплатно! Внесите свою лепту в развитие PiratBit!
      Комментировать посты могут только пользователи прошедшие не сложную регистрацию
      Показать сообщения:    

      Каменные кулаки через торрент
      Скачать бесплатно Каменные кулаки
      Каменные кулаки скачать торрент
      Каменные кулаки смотреть онлайн
      Cкачать фильм Каменные кулаки бесплатно
      Каменные кулаки скачать торрент в хорошем качестве
      Каменные кулаки смотреть онлайн бесплатно в хорошем качестве


      Вы не можете начинать темы
      Вы не можете отвечать на сообщения
      Вы не можете редактировать свои сообщения
      Вы не можете удалять свои сообщения
      Вы не можете голосовать в опросах
      Вы не можете прикреплять файлы к сообщениям
      Вы можете скачивать файлы