1 сезон

3 сезон

iTunes

1

iTunes

MVO

iTunes

13

1 сезон

RePack

30

Deluxe

pack

Лицензия

ВАЖНО

ИГРА 18+

pack

RePack

MK11

RePack

jed

RePack

fifa19

RePack

RDR2

RePack

NEED FOR SPEED™ PAYBACK

4 сезон

9 сезон

Бесстыжие 9 сезон

Все сериалы

все сериалы на PB.wtf

RePack

FAR CRY 5

Anonymous, добрый вечер, мы катастрофически не успеваем собрать деньги на оплату серверов, помогите нам пожалуйста 5,10,15р., для нас важна любая помощь . В качестве благодарности мы отключим Вам всю рекламу на сайте (укажите свой ник в строку Ваше имя)!

×
  
Magnet ссылка

Три дня / Three Days (Майкл Свитцер / Michael Switzer) [2001, семейный, мелодрама, DVB] [MVO] (СТС) piratbit.org

Три дня через торрент piratbit.org

Размер: 2 GB | Добавлен: 4 года 8 мес. назад | Торрент скачан:24 раза
Скачать  

10-11-2016 21:09 Три дня Скачать торрент  

Три дня / Three Days Год выпуска: 2001
Страна: США
Жанр: семейный, мелодрама
Продолжительность: 01:27:43
Перевод: Профессиональный (многоголосый закадровый) - [СТС]
Cубтитры: нет

Режиссер: Майкл Свитцер / Michael Switzer

В ролях: Кристин Дэвис, Рид Даймонд, Даниэль Бретт, Тим Медоуз, Седрик Смит, Алекса Гилмор, Эндрю Буш, Ли Дж. Кэмпбелл, Дэвид Кристоффел, Ховард Д’Арси

Описание: Десять лет тому назад Эндрю женился на своей любви с детства — Бет. С того времени Эндрю сделал карьеру, стал главой крупного издательского агентства.
Но в его личной жизни происходит трагедия — любимая жена погибает, по иронии судьбы это происходит в канун Рождества. Добрый ангел даёт Эндрю шанс провести с Бет еще три дня, как если бы она была жива…


Качество видео: DVB
Формат видео: MPG
Видео: 720x576 (4:3) @ 768x576, 25.000 fps, MPEG-2 Video, ~3006 Kbps, 0.290 bits/pixel
Аудио: Русский, 48.0 KHz, MPEG-1 Audio layer 2, 2 ch, 192 Kbps
General
Complete name : Three Days 2001 Disney MVO CTC.mpg
Format : MPEG-PS
File size : 2.00 GiB
Duration : 1h 27mn
Overall bit rate mode : Variable
Overall bit rate : 3 263 Kbps
Video
ID : 224 (0xE0)
Format : MPEG Video
Format version : Version 2
Format profile : Main@Main
Format settings, BVOP : Yes
Format settings, Matrix : Custom
Format settings, GOP : Variable
Format settings, picture structure : Frame
Duration : 1h 27mn
Bit rate mode : Variable
Bit rate : 3 006 Kbps
Maximum bit rate : 15.0 Mbps
Width : 720 pixels
Height : 576 pixels
Display aspect ratio : 4:3
Frame rate : 25.000 fps
Standard : PAL
Color space : YUV
Chroma subsampling : 4:2:0
Bit depth : 8 bits
Scan type : Interlaced
Scan order : Top Field First
Compression mode : Lossy
Bits/(Pixel*Frame) : 0.290
Time code of first frame : 00:00:00:00
Time code source : Group of pictures header
Stream size : 1.84 GiB (92%)
Audio
ID : 192 (0xC0)
Format : MPEG Audio
Format version : Version 1
Format profile : Layer 2
Duration : 1h 27mn
Bit rate mode : Constant
Bit rate : 192 Kbps
Channel(s) : 2 channels
Sampling rate : 48.0 KHz
Compression mode : Lossy
Stream size : 120 MiB (6%)
piratbit.org



Скачать Три дня через торрент http://i5.imageban.ru/out/2014/12/30/47c80fe9c4678ea64c4b27985a9e446a.jpg Скачать фильм Три дня через торрент бесплантно в хорошем качестве Описание: Десять лет тому назад Эндрю женился на своей любви с детства — Бет. С того времени Эндрю сделал карьеру, стал главой крупного ... 6 10 2
Торрент: Зарегистрирован [2016-11-10 21:09] · скачан: 24 раз
Статус: √ проверено
Размер: 2 GB
Как cкачать? Как скачать Три дня через торрент | UTorrent

% Раздел Тема Автор DL S | L
Фильмы [HD 720p, 1080p] (Хороший звук DUB, MVO) [ 9.22 GB ] Три дня на побег / The Next Three Days [2010 BDRip-HEVC 1080p] DUB RealOldGamer Скачать
2 | 0
Фильмы [HD 720p, 1080p] (Хороший звук DUB, MVO) [ 19.77 GB ] Три дня на побег / The Next Three Days [2010 BDRip 1080p] 2xDUB DVO AVO Леонид Ильич Скачать
1 | 0
Фильмы [HD 720p, 1080p] (Хороший звук DUB, MVO) [ 13.24 GB ] Три дня Кондора / Three Days of the Condor [1975 BDRip 1080p by msltel] DUB MVO 2 x AVO msltel Скачать
1 | 0
Фильмы [HD 720p, 1080p] (Хороший звук DUB, MVO) [ 5.41 GB ] Три дня Кондора / Three Days of the Condor [1975 BDRip 720p by msltel] DUB MVO 2 x AVO msltel Скачать
1 | 0
Фильмы [HD 720p, 1080p] (Хороший звук DUB, MVO) [ 9.66 GB ] Три дня на побег / The Next Three Days [2010 BDRip 720p] Dub MVO AVO potroks Скачать
1 | 0
Фильмы 2010 [ 1.37 GB ] Три дня на побег / Next Three Days The [2010 HDRip лицензия] Lil Badun Скачать
1 | 0
Фильмы 2010 [ 2.05 GB ] Три дня на побег / Next Three Days The [2010 HDRip лицензия] L_E_X Скачать
1 | 0

28-11-2019 20:33  

Отключить всю рекламу на сайте

    Дорогой пользователь! Огромная просьба, поблагодарите релизера, оцените раздачу и оставьте свои комментарий, если Вы скачали Три дня через торрент бесплатно! Внесите свою лепту в развитие PiratBit!
    Комментировать посты могут только пользователи прошедшие не сложную регистрацию
    Показать сообщения:    

    Три дня через торрент
    Скачать бесплатно Три дня
    Три дня скачать торрент
    Три дня смотреть онлайн
    Cкачать фильм Три дня бесплатно
    Три дня скачать торрент в хорошем качестве
    Три дня смотреть онлайн бесплатно в хорошем качестве


    Вы не можете начинать темы
    Вы не можете отвечать на сообщения
    Вы не можете редактировать свои сообщения
    Вы не можете удалять свои сообщения
    Вы не можете голосовать в опросах
    Вы не можете прикреплять файлы к сообщениям
    Вы можете скачивать файлы