1 сезон

3 сезон

iTunes

1

iTunes

DUB Netflix

iTunes

13

1 сезон

RePack

30

Deluxe

pack

Легкие деньги

ВАЖНО

ИГРА 18+

pack

RePack

MK11

RePack

jed

RePack

fifa19

RePack

RDR2

RePack

NEED FOR SPEED™ PAYBACK

4 сезон

9 сезон

Бесстыжие 9 сезон

Все сериалы

все сериалы на PB.wtf

RePack

FAR CRY 5

Anonymous, добрый день, мы не успеваем до 1 числа собрать деньги на оплату серверов, помогите нам пожалуйста в это трудное время. В качестве благодарности мы отключим Вам всю рекламу на сайте (укажите свой ник в строку Ваше имя)!

×
  
Magnet ссылка

Любой ценой / Hell or High Water (Дэвид Маккензи / David Mackenzie) [2016, драма, криминал, BDRip-AVC] Dub [iTunes] piratbit.org

Любой ценой через торрент piratbit.org

Размер: 1.43 GB | Добавлен: 4 года 7 мес. назад | Торрент скачан:245 раз
Скачать  

13-11-2016 13:57 Любой ценой Скачать торрент  

Любой ценой / Hell or High Water«Справедливость - это не преступление»

Страна: США
Жанр: драма, криминал
Год выпуска: 2016
Продолжительность: 01:42:15
Перевод: Профессиональный (дублированный) (iTunes)
Оригинальная аудиодорожка: нет
Субтитры: нет
Навигация по главам: есть

Режиссер: Дэвид Маккензи / David Mackenzie

В ролях: Джефф Бриджес (Marcus Hamilton), Крис Пайн (Toby Howard), Бен Фостер (Tanner Howard), Джил Бирмингем (Alberto Parker), Дейл Дикки (Elsie), Уильям Стерчи (Mr. Clauson), Бак Тейлор (Old Man), Кристин Берг (Olney Teller), Кит Мэривезер (Rancher), Жакмо Буззел (Archer City Deputy), Кэти Миксон (Jenny Ann), Эмбер Мидфандер (Vernon Teller)

Описание: Два брата-лузера решают наведаться в хранилища пары-тройки банков, которые много лет безбожно обкрадывают своих должников. Расследование дерзких ограблений с грубым почерком увенчает карьеру шерифа Маркуса. Но куда выведет это нехитрое дело?

Качество: BDRip-AVC (исходник - BDRemux|HELL_OH_BD_RMX-BLUEBIRD)
Формат: MKV
Видео: x264, 984x410 (2.40:1) 23.976 fps, ~1576 kbps, 0.163 bit/pixel
Аудио: 48 kHz, AC3 Dolby Digital, 3/2 (L,C,R,l,r) + LFE ch, ~384 kbps
Format : Matroska
Format version : Version 4 / Version 2
File size : 1.43 GiB
Duration : 1h 42 min
Overall bit rate : 2 000 kb/s
Movie name : Любой ценой / Hell or High Water (2016) :: AFM ::
Encoded date : UTC 2016-11-12 21:44:48
Writing application : mkvmerge v8.3.0 ('Over the Horizon') 32bit
Writing library : libebml v1.3.1 + libmatroska v1.4.2

Video
ID : 1
Format : AVC
Format/Info : Advanced Video Codec
Format profile : High@L4.1
Format settings, CABAC : Yes
Format settings, ReFrames : 12 frames
Codec ID : V_MPEG4/ISO/AVC
Duration : 1h 42 min
Bit rate : 1 576 kb/s
Width : 984 pixels
Height : 410 pixels
Display aspect ratio : 2.40:1
Frame rate mode : Constant
Frame rate : 23.976 (24000/1001) FPS
Color space : YUV
Chroma subsampling : 4:2:0
Bit depth : 8 bits
Scan type : Progressive
Bits/(Pixel*Frame) : 0.163
Stream size : 1.13 GiB (79%)
Title : BDRip by AFM
Writing library : x264 core 148 r2721+55 e19946b t_mod_Custom [8-bit@all X86_64]
Encoding settings : cabac=1 / ref=12 / deblock=1:-2:-2 / analyse=0x3:0x113 / me=umh / subme=10 / psy=1 / fade_compensate=0.00 / psy_rd=1.00:0.00 / mixed_ref=1 / me_range=32 / chroma_me=1 / trellis=2 / 8x8dct=1 / cqm=0 / deadzone=21,11 / fast_pskip=0 / chroma_qp_offset=-2 / threads=6 / lookahead_threads=1 / sliced_threads=0 / nr=0 / decimate=1 / interlaced=0 / bluray_compat=0 / constrained_intra=0 / fgo=0 / bframes=13 / b_pyramid=2 / b_adapt=2 / b_bias=0 / direct=1 / weightb=1 / open_gop=0 / weightp=2 / keyint=240 / keyint_min=23 / scenecut=40 / intra_refresh=0 / rc_lookahead=40 / rc=crf / mbtree=0 / crf=18.8000 / qcomp=0.65 / qpmin=0:0:0 / qpmax=69:69:69 / qpstep=4 / vbv_maxrate=50000 / vbv_bufsize=62500 / crf_max=0.0 / nal_hrd=none / filler=0 / ip_ratio=1.35 / pb_ratio=1.30 / aq=3:0.85 / aq-sensitivity=10.00 / aq-factor=1.00:1.00:1.00 / aq2=0 / aq3=0
Language : English
Default : Yes
Forced : No

[/br]Audio
ID : 2
Format : AC-3
Format/Info : Audio Coding 3
Mode extension : CM (complete main)
Format settings, Endianness : Big
Codec ID : A_AC3
Duration : 1h 42 min
Bit rate mode : Constant
Bit rate : 384 kb/s
Channel(s) : 6 channels
Channel positions : Front: L C R, Side: L R, LFE
Sampling rate : 48.0 kHz
Frame rate : 31.250 FPS (1536 spf)
Compression mode : Lossy
Stream size : 281 MiB (19%)
Title : Dub, AC3 5.1 ~384 kbps
Language : Russian
Default : Yes
Forced : No

Menu
00:00:00.000 : en:Chapter 1
00:09:37.242 : en:Chapter 2
00:13:50.453 : en:Chapter 3
00:22:14.583 : en:Chapter 4
00:28:40.384 : en:Chapter 5
00:31:54.328 : en:Chapter 6
00:40:49.612 : en:Chapter 7
00:46:49.931 : en:Chapter 8
00:55:45.090 : en:Chapter 9
01:02:06.472 : en:Chapter 10
01:09:52.896 : en:Chapter 11
01:14:04.648 : en:Chapter 12
01:20:56.225 : en:Chapter 13
01:29:09.135 : en:Chapter 14
01:35:03.863 : en:Chapter 15
01:38:28.277 : en:Chapter 16
x264 [info]: frame I:927 Avg QP:18.36 size: 56683
x264 [info]: frame P:29453 Avg QP:19.73 size: 19602
x264 [info]: frame B:116722 Avg QP:21.99 size: 5208
x264 [info]: consecutive B-frames: 1.1% 1.3% 5.4% 20.3% 17.9% 41.1% 5.9% 2.0% 2.0% 0.6% 0.7% 1.0% 0.4% 0.2%
x264 [info]: mb I I16..4: 4.3% 70.8% 24.9%
x264 [info]: mb P I16..4: 0.8% 7.5% 1.7% P16..4: 39.0% 29.0% 16.9% 0.0% 0.0% skip: 5.1%
x264 [info]: mb B I16..4: 0.1% 0.5% 0.1% B16..8: 38.2% 10.8% 3.4% direct: 4.7% skip:42.2% L0:43.2% L1:44.1% BI:12.8%
x264 [info]: 8x8 transform intra:73.3% inter:61.7%
x264 [info]: coded y,uvDC,uvAC intra: 83.6% 80.1% 55.1% inter: 20.6% 15.1% 2.7%
x264 [info]: i16 v,h,dc,p: 35% 31% 6% 29%
x264 [info]: i8 v,h,dc,ddl,ddr,vr,hd,vl,hu: 10% 14% 9% 8% 12% 12% 12% 10% 12%
x264 [info]: i4 v,h,dc,ddl,ddr,vr,hd,vl,hu: 12% 14% 4% 8% 14% 13% 13% 10% 12%
x264 [info]: i8c dc,h,v,p: 37% 32% 18% 13%
x264 [info]: Weighted P-Frames: Y:2.1% UV:0.9%
x264 [info]: ref P L0: 45.8% 13.1% 15.6% 5.9% 5.0% 3.6% 3.3% 1.7% 1.7% 1.4% 1.4% 1.3% 0.0% 0.0%
x264 [info]: ref B L0: 72.4% 11.1% 5.8% 3.0% 2.2% 1.7% 1.4% 0.9% 0.8% 0.5% 0.2%
x264 [info]: ref B L1: 93.6% 6.4%
x264 [info]: kb/s:1613.91
piratbit.org



Скачать Любой ценой через торрент http://i3.imageban.ru/out/2016/11/13/561e0b7a3ce0b482fe5a9fce1fcaa328.png Скачать фильм Любой ценой через торрент бесплантно в хорошем качестве Описание: Два брата-лузера решают наведаться в хранилища пары-тройки банков, которые много лет безбожно обкрадывают своих должников. ... 10 10 4
Торрент: Зарегистрирован [2016-11-13 13:57] · скачан: 245 раз
Статус: √ проверено
Размер: 1.43 GB
Как cкачать? Как скачать Любой ценой через торрент | UTorrent

% Раздел Тема Автор DL S | L
Фильмы с авторской озвучкой [ 1.46 GB ] Любой ценой / Hell or High Water [2016 BDRip] AVO [Д.Пучков aka Goblin] Twi7ter Скачать
1 | 0
Фильмы с авторской озвучкой [ 1.46 GB ] Любой ценой / Hell or High Water [2016 BDRip] [AVO] killermax2013 Скачать
1 | 0
Ultra HD (UHD: 2K, 4K, 8K) — видео сверхвысокой чёткости [ 64.61 GB ] Любой ценой / Hell or High Water [2016 UHD BDRemux 2160p] 3xAVO+DUB [] bober100 Скачать
1 | 0
Фильмы [HD 720p, 1080p] (Хороший звук DUB, MVO) [ 7.09 GB ] Любой ценой / Hell or High Water [2016 BDRip 720p от _denis_100 | NNNB] DUB + 3xAVO + Original + Sub _denis_100 Скачать
1 | 0
Фильмы (Blu-ray, BD-Remux, HDDVD) [ 29.24 GB ] Любой ценой / Hell or High Water [2016 BD Remux 1080p] [] DUB+AVO bober100 Скачать
1 | 0
Фильмы [HD 720p, 1080p] (Хороший звук DUB, MVO) [ 5.76 GB ] Любой ценой / Hell or High Water [2016 BDRip 720p] DUB AVO potroks Скачать
1 | 0
Фильмы 2016 [DVDrip, WEB-DLRip, HDrip] (DUB, MVO) [ 1.46 GB ] Любой ценой / Hell or High Water [2016 BDRip] - [] Twi7ter Скачать
1 | 0

28-11-2019 20:33  

Отключить всю рекламу на сайте


    Дорогой пользователь! Огромная просьба, поблагодарите релизера, оцените раздачу и оставьте свои комментарий, если Вы скачали Любой ценой через торрент бесплатно! Внесите свою лепту в развитие PiratBit!
    Комментировать посты могут только пользователи прошедшие не сложную регистрацию
    Показать сообщения:    

    Любой ценой через торрент
    Скачать бесплатно Любой ценой
    Любой ценой скачать торрент
    Любой ценой смотреть онлайн
    Cкачать фильм Любой ценой бесплатно
    Любой ценой скачать торрент в хорошем качестве
    Любой ценой смотреть онлайн бесплатно в хорошем качестве


    Вы не можете начинать темы
    Вы не можете отвечать на сообщения
    Вы не можете редактировать свои сообщения
    Вы не можете удалять свои сообщения
    Вы не можете голосовать в опросах
    Вы не можете прикреплять файлы к сообщениям
    Вы можете скачивать файлы