1 сезон

3 сезон

iTunes

1

iTunes

DUB Netflix

iTunes

13

1 сезон

RePack

30

Deluxe

pack

Легкие деньги

ВАЖНО

ИГРА 18+

pack

RePack

MK11

RePack

jed

RePack

fifa19

RePack

RDR2

RePack

NEED FOR SPEED™ PAYBACK

4 сезон

9 сезон

Бесстыжие 9 сезон

Все сериалы

все сериалы на PB.wtf

RePack

FAR CRY 5

Anonymous, добрый день, мы не успеваем до 1 числа собрать деньги на оплату серверов, помогите нам пожалуйста в это трудное время. В качестве благодарности мы отключим Вам всю рекламу на сайте (укажите свой ник в строку Ваше имя)!

×
  
Magnet ссылка

Реальные воспоминания международного убийцы / True Memoirs of an International Assassin (Джефф Уодлоу ) [2016, боевик, комедия, WEBRip] Любительский (многоголосый) (Синема УС) piratbit.org

Реальные воспоминания международного убийцы через торрент piratbit.org

Размер: 1.46 GB | Добавлен: 4 года 7 мес. назад | Торрент скачан:1297 раз
Скачать  

13-11-2016 15:13 Реальные воспоминания международного убийцы Скачать торрент  

Реальные воспоминания международного убийцы / True Memoirs of an International Assassin

Год выпуска: 2016
Страна: США
Жанр: боевик, комедия
Продолжительность: 01:38:23
Перевод: Любительский (многоголосый) (Синема УС)
Режиссер: Джефф Уодлоу
В ролях: Кевин Джеймс (Same Larson / Mason Carver), Ким Коутс (President Miguel «Mike» Cueto), Морис Комт (Juan), Сулай Энао (Rosa Bolivar), Эндрю Ховард (Anton Masovich), Рон Рифкин (Amos), Юл Васкес (General Javier Ruiz), П.Дж. Бирн (Trent), Келен Коулмэн (Kylie Applebaum), Леонард Эрл Хауз (Michael Cleveland), Роб Риггл (William Cobb), Энди Гарсиа (El Toro)
Описание:
Экшн-комедия о робком бухгалтере и писателе-дебютанте Джо, чей роман «Воспоминания международного убийцы» выпускают под видом правдивых исповедальных мемуаров. Новый бестселлер привлекает внимание ЦРУ, гангстеров и журналистов, вынуждая кроткого писателя почувствовать себя в шкуре своего персонажа.
Рейтинг:

Качество: WEBRip
Формат: AVI
Видео: XviD, 720x304 (2.35:1), 1726 kbps, 23,976 fps, 0,329 bpp
Аудио: AC3 / 2.0 / 48 kHz / 384 kbps /

General
Complete name : D:\Proba\Internacionalniy.UbiyTsa.2016.P.WEB-DLRip.14OOMB_KOSHARA.avi
Format : AVI
Format/Info : Audio Video Interleave
File size : 1.46 GiB
Duration : 1 h 38 min
Overall bit rate : 2 120 kb/s
Writing application : VirtualDubMod 1.5.10.2 (build 2540/release)
Writing library : VirtualDubMod build 2540/release

Video
ID : 0
Format : MPEG-4 Visual
Format profile : Advanced Simple@L5
Format settings, BVOP : 2
Format settings, QPel : No
Format settings, GMC : No warppoints
Format settings, Matrix : Custom
Codec ID : XVID
Codec ID/Hint : XviD
Duration : 1 h 38 min
Bit rate : 1 727 kb/s
Width : 720 pixels
Height : 304 pixels
Display aspect ratio : 2.35:1
Frame rate : 23.976 (24000/1001) FPS
Color space : YUV
Chroma subsampling : 4:2:0
Bit depth : 8 bits
Scan type : Progressive
Compression mode : Lossy
Bits/(Pixel*Frame) : 0.329
Stream size : 1.19 GiB (81%)
Writing library : XviD 1.2.1 (UTC 2008-12-04)

Audio
ID : 1
Format : AC-3
Format/Info : Audio Coding 3
Mode extension : CM (complete main)
Format settings, Endianness : Big
Codec ID : 2000
Duration : 1 h 38 min
Bit rate mode : Constant
Bit rate : 384 kb/s
Channel(s) : 2 channels
Channel positions : Front: L R
Sampling rate : 48.0 kHz
Frame rate : 31.250 FPS (1536 spf)
Compression mode : Lossy
Stream size : 270 MiB (18%)
Alignment : Split accross interleaves
Interleave, duration : 42 ms (1.00 video frame)
Interleave, preload duration : 500 ms


Имеется рекламаpiratbit.org



Скачать Реальные воспоминания международного убийцы через торрент http://i4.imageban.ru/out/2016/11/13/e8f254301fc6b979e2e458f0685df759.jpg Скачать фильм Реальные воспоминания международного убийцы через торрент бесплантно в хорошем качестве Описание: Экшн-комедия о робком бухгалтере и писателе-дебютанте Джо, чей роман «Воспоминания международного убийцы» выпускают под видом ... 9 10 41
Торрент: Зарегистрирован [2016-11-13 15:13] · скачан: 1 297 раз
Статус: T временная
Размер: 1.46 GB
Как cкачать? Как скачать Реальные воспоминания международного убийцы через торрент | UTorrent

% Раздел Тема Автор DL S | L
T Фильмы 2016 [DVDrip, WEB-DLRip, HDrip] (DUB, MVO) [ 1.37 GB ] Реальные воспоминания международного убийцы / True Memoirs of an International Assassin [2016 WEBRip] MVO [HDRezka Studio] - ExKinoRay Enigma2010 Скачать
7 | 0
T Фильмы (WEB-DL 720p, 1080p) [ 6.61 GB ] Реальные воспоминания международного убийцы / True Memoirs of an International Assassin [2016 WEBRip 1080p] MVO [HDRezka Studio] - ExKinoRay Enigma2010 Скачать
1 | 0

28-11-2019 20:33  

Отключить всю рекламу на сайте

13-11-2016 15:31 Реальные воспоминания международного убийцы Скачать торрент  

Userman4ik писал(а):

Перевод: Любительский (многоголосый)

Userman4ik, чья именно озвучка? Синема УС? Указывайте в описании, не забывайте.piratbit.org



13-11-2016 15:32 Реальные воспоминания международного убийцы Скачать торрент  

-Lexx- писал(а):

Userman4ik писал(а):

Перевод: Любительский (многоголосый)

Userman4ik, чья именно озвучка? Синема УС? Указывайте в описании, не забывайте.

Синема УСpiratbit.org



15-11-2016 08:51 Реальные воспоминания международного убийцы Скачать торрент  

На удивление очень не плохой фильм. Твердая 4. Раздающему спасибо.piratbit.org



15-11-2016 18:10 Реальные воспоминания международного убийцы Скачать торрент  

твердая 4 из сколько? из 5-ти или 10-ти? thinkpiratbit.org



27-12-2016 09:34 Реальные воспоминания международного убийцы Скачать торрент  

krona писал(а):

твердая 4 из сколько? из 5-ти или 10-ти? think

из пятиpiratbit.org



03-01-2017 19:00 Реальные воспоминания международного убийцы Скачать торрент  

Разок глянуть можно! Не нудный по крайней мереpiratbit.org



    Дорогой пользователь! Огромная просьба, поблагодарите релизера, оцените раздачу и оставьте свои комментарий, если Вы скачали Реальные воспоминания международного убийцы через торрент бесплатно! Внесите свою лепту в развитие PiratBit!
    Комментировать посты могут только пользователи прошедшие не сложную регистрацию
    Показать сообщения:    

    Реальные воспоминания международного убийцы через торрент
    Скачать бесплатно Реальные воспоминания международного убийцы
    Реальные воспоминания международного убийцы скачать торрент
    Реальные воспоминания международного убийцы смотреть онлайн
    Cкачать фильм Реальные воспоминания международного убийцы бесплатно
    Реальные воспоминания международного убийцы скачать торрент в хорошем качестве
    Реальные воспоминания международного убийцы смотреть онлайн бесплатно в хорошем качестве


    Вы не можете начинать темы
    Вы не можете отвечать на сообщения
    Вы не можете редактировать свои сообщения
    Вы не можете удалять свои сообщения
    Вы не можете голосовать в опросах
    Вы не можете прикреплять файлы к сообщениям
    Вы можете скачивать файлы