1 сезон

3 сезон

iTunes

1

iTunes

DUB Netflix

iTunes

13

1 сезон

RePack

30

Deluxe

pack

Легкие деньги

ВАЖНО

ИГРА 18+

pack

RePack

MK11

RePack

jed

RePack

fifa19

RePack

RDR2

RePack

NEED FOR SPEED™ PAYBACK

4 сезон

9 сезон

Бесстыжие 9 сезон

Все сериалы

все сериалы на PB.wtf

RePack

FAR CRY 5

Anonymous, добрый день, мы не успеваем до 1 числа собрать деньги на оплату серверов, помогите нам пожалуйста в это трудное время. В качестве благодарности мы отключим Вам всю рекламу на сайте (укажите свой ник в строку Ваше имя)!

×
  
Magnet ссылка

Механик: Воскрешение / Mechanic: Resurrection (Деннис Ганзель) [2016 г., боевик, триллер, криминал, HDRip, Дубляж "iTunes"] piratbit.org

Механик: Воскрешение через торрент piratbit.org

Размер: 1.46 GB | Добавлен: 4 года 7 мес. назад | Торрент скачан:1045 раз
Скачать  

13-11-2016 18:06 Механик: Воскрешение Скачать торрент  

Механик: Воскрешение / Mechanic: Resurrection
Год выпуска: 2016
Страна: Франция, США / Chartoff-Winkler Productions, Davis-Films, ME2 Productions
Жанр: боевик, триллер, криминал
Продолжительность: 01:38:38
Перевод: Дубляж (iTunes)

Режиссер: Деннис Ганзель

rating

В ролях: Джейсон Стэйтем, Джессика Альба, Томми Ли Джонс, Мишель Йео, Сэм Хэзелдайн, Джон Ченатьемпо, Тоби Эддингтон, Феми Элуфоводжо, Антео Квинтавалле, Ейяин Рхатха Пхонгам

Описание: Артура Бишопа, давно оставившего свое криминальное ремесло, вынуждают снова вступить в игру. Чтобы похитители вернули его возлюбленную, он должен сделать то, что у него получается лучше всего: от него требуется совершить три убийства, идеально обставленных как несчастные случаи.

Качество: HDRip
Формат: AVI
Видео кодек: XviD
Аудио кодек: AC3
Видео: 720x304 (2.37:1), 23.976 fps, XviD build 50 ~1725 kbps avg, 0.33 bit/pixel
Аудио: 48 kHz, AC3 Dolby Digital, 3/2 (L,C,R,l,r) + LFE ch, ~384 kbps

Общее
Полное имя : F:\ФИЛЬМЫ\Механик. Воскрешение.2016.D.HDRip.avi
Формат : AVI
Формат/Информация : Audio Video Interleave
Размер файла : 1,46 Гбайт
Продолжительность : 1 ч. 38 м.
Общий поток : 2119 Кбит/сек
Программа кодирования : VirtualDubMod 1.5.10.3 | www.virtualdub-fr.org || (build 2550/release)
Библиотека кодирования : VirtualDubMod build 2550/release

Видео
Идентификатор : 0
Формат : MPEG-4 Visual
Профиль формата : Advanced Simple@L5
Параметр BVOP формата : 1
Параметр QPel формата : Нет
Параметр GMC формата : Без точки перехода
Параметр матрицы формата : Default (MPEG)
Идентификатор кодека : XVID
Идентификатор кодека/Подсказка : XviD
Продолжительность : 1 ч. 38 м.
Битрейт : 1725 Кбит/сек
Ширина : 720 пикселей
Высота : 304 пикселя
Соотношение сторон : 2,35:1
Частота кадров : 23,976 (24000/1001) кадра/сек
Частота кадров в оригинале : 23,976 (23976/1000) кадра/сек
Цветовое пространство : YUV
Субдискретизация насыщенности : 4:2:0
Битовая глубина : 8 бит
Тип развёртки : Прогрессивная
Метод сжатия : С потерями
Бит/(Пиксели*Кадры) : 0.329
Размер потока : 1,19 Гбайт (81%)
Библиотека кодирования : XviD 1.2.1 (UTC 2008-12-04)

Аудио
Идентификатор : 1
Формат : AC-3
Формат/Информация : Audio Coding 3
Расширение режима : CM (complete main)
Параметр Endianness формата : Big
Идентификатор кодека : 2000
Продолжительность : 1 ч. 38 м.
Вид битрейта : Постоянный
Битрейт : 384 Кбит/сек
Каналы : 6 каналов
Расположение каналов : Front: L C R, Side: L R, LFE
Частота : 48,0 КГц
Частота кадров : 31,250 кадров/сек (1536 spf)
Битовая глубина : 16 бит
Метод сжатия : С потерями
Размер потока : 271 Мбайт (18%)
Выравнивание : Разделение по промежуткам
Продолжительность промежутка : 42 мс. (1,00 видеокадр)
Время предзагрузки промежутка : 500 мс.

piratbit.org



Скачать Механик: Воскрешение через торрент https://pic.kartinco.top/images/11/atrhd.jpg Скачать фильм Механик: Воскрешение через торрент бесплантно в хорошем качестве Описание: Артура Бишопа, давно оставившего свое криминальное ремесло, вынуждают снова вступить в игру. Чтобы похитители вернули его ... 9.6 10 26
Info! Золотая раздача, скачанное не засчитывается.
Торрент: Зарегистрирован [2016-11-13 18:06] · скачан: 1 045 раз
Статус: √ проверено
Размер: 1.46 GB
Как cкачать? Как скачать Механик: Воскрешение через торрент | UTorrent

% Раздел Тема Автор DL S | L
Фильмы (HD 720p, 1080p) (48-60 fps) [ 2.46 GB ] Механик: Воскрешение / Mechanic: Resurrection [2016 BDRip 720p / 60 FPS ] от R.G. HD-Films slaventi-69 Скачать
1 | 0
Ultra HD (UHD: 2K, 4K, 8K) — видео сверхвысокой чёткости [ 62.52 GB ] Механик: Воскрешение / Mechanic: Resurrection [2016 UHD BDRemux 2160p] DUB [] +MVO+2xAVO bober100 Скачать
3 | 0
Фильмы (Blu-ray, BD-Remux, HDDVD) [ 31.42 GB ] Механик: Воскрешение / Mechanic: Resurrection [2016 BD Remux 1080p] [] DUB+AVO bober100 Скачать
1 | 0
Фильмы [HD 720p, 1080p] (Хороший звук DUB, MVO) [ 5.91 GB ] Механик: Воскрешение / Mechanic: Resurrection [2016 BDRip 1080p] - [] -Lexx- Скачать
1 | 0
R.G. Resident & PiratVoice - Фильмы, Видео [ 2.23 GB ] Механик: Воскрешение / Mechanic: Resurrection [2016 BDRip-AVC] - R.G.Resident schultz Скачать
1 | 0
Фильмы 2016 [DVDrip, WEB-DLRip, HDrip] (DUB, MVO) [ 1.46 GB ] Механик: Воскрешение / Mechanic: Resurrection [2016 BDRip] - [] Twi7ter Скачать
2 | 0
Фильмы (Blu-ray, BD-Remux, HDDVD) [ 18.8 GB ] Механик: Воскрешение / Mechanic: Resurrection [2016 Blu-Ray 1080p] / RUS Transfer / / -Lexx- Скачать
1 | 0

28-11-2019 20:33  

Отключить всю рекламу на сайте

25-11-2016 06:55 Механик: Воскрешение Скачать торрент  

Может я слегка устал от таких фильмов, но вообще не интересный, предсказуемый и глупыйpiratbit.org



    Дорогой пользователь! Огромная просьба, поблагодарите релизера, оцените раздачу и оставьте свои комментарий, если Вы скачали Механик: Воскрешение через торрент бесплатно! Внесите свою лепту в развитие PiratBit!
    Комментировать посты могут только пользователи прошедшие не сложную регистрацию
    Показать сообщения:    

    Механик: Воскрешение через торрент
    Скачать бесплатно Механик: Воскрешение
    Механик: Воскрешение скачать торрент
    Механик: Воскрешение смотреть онлайн
    Cкачать фильм Механик: Воскрешение бесплатно
    Механик: Воскрешение скачать торрент в хорошем качестве
    Механик: Воскрешение смотреть онлайн бесплатно в хорошем качестве


    Вы не можете начинать темы
    Вы не можете отвечать на сообщения
    Вы не можете редактировать свои сообщения
    Вы не можете удалять свои сообщения
    Вы не можете голосовать в опросах
    Вы не можете прикреплять файлы к сообщениям
    Вы можете скачивать файлы