1 сезон

3 сезон

iTunes

1

iTunes

DUB Netflix

iTunes

13

1 сезон

RePack

30

Deluxe

pack

Легкие деньги

ВАЖНО

ИГРА 18+

pack

RePack

MK11

RePack

jed

RePack

fifa19

RePack

RDR2

RePack

NEED FOR SPEED™ PAYBACK

4 сезон

9 сезон

Бесстыжие 9 сезон

Все сериалы

все сериалы на PB.wtf

RePack

FAR CRY 5

Anonymous, доброй ночи, мы не успеваем до 1 числа собрать деньги на оплату серверов, помогите нам пожалуйста в это трудное время. В качестве благодарности мы отключим Вам всю рекламу на сайте (укажите свой ник в строку Ваше имя)!

×
  
Magnet ссылка

Монстры существуют / The Monster (Брайан Бертино ) [2016, ужасы, WEB-DLRip] Любительский (многоголосый) Синема УС piratbit.org

Монстры существуют через торрент piratbit.org

Размер: 1.37 GB | Добавлен: 4 года 7 мес. назад | Торрент скачан:456 раз
Скачать  

14-11-2016 02:49 Монстры существуют Скачать торрент  

Монстры существуют / The Monster

Год выпуска: 2016
Страна: США
Жанр: ужасы
Продолжительность: 01:31:25
Перевод: Любительский (многоголосый) Синема УС
Режиссер: Брайан Бертино
В ролях: Зои Казан (Kathy), Элла Бэллентайн (Lizzy), Скотт Спидман (Roy), Аарон Дуглас (Jesse), Крис Уэбб (Monster), Кристин Эбади (Leslie Williams)
Описание:
Мать с 10-летней дочерью оказались в ловушке в лесу. Что-то скрывается в этом лесу. Что-то, по звуку непохожее на все, что они слышали прежде. Не человек, и не животное. Как тысяча лошадей или крик матери, как плач младенца или вопль отца. Что-то скрывается в кромешной темноте, и это что-то идет за ними.
Рейтинг:

MPAA: R - Лицам до 17 лет обязательно присутствие взрослого
Качество: WEB-DLRip
Формат: AVI
Видео: XviD, 720x304 (2.35:1), 1748 kbps, 23,976 fps, 0,333 bpp
Аудио: AC3 / 2.0 / 48 kHz / 384 kbps /

General
Complete name : D:\Proba\The.Monster.2016.P.WEB-DLRip.14OOMB_KOSHARA.avi
Format : AVI
Format/Info : Audio Video Interleave
File size : 1.37 GiB
Duration : 1 h 31 min
Overall bit rate : 2 142 kb/s
Writing application : VirtualDubMod 1.5.10.2 (build 2540/release)
Writing library : VirtualDubMod build 2540/release

Video
ID : 0
Format : MPEG-4 Visual
Format profile : Advanced Simple@L5
Format settings, BVOP : 2
Format settings, QPel : No
Format settings, GMC : No warppoints
Format settings, Matrix : Custom
Codec ID : XVID
Codec ID/Hint : XviD
Duration : 1 h 31 min
Bit rate : 1 749 kb/s
Width : 720 pixels
Height : 304 pixels
Display aspect ratio : 2.35:1
Frame rate : 23.976 (24000/1001) FPS
Color space : YUV
Chroma subsampling : 4:2:0
Bit depth : 8 bits
Scan type : Progressive
Compression mode : Lossy
Bits/(Pixel*Frame) : 0.333
Stream size : 1.12 GiB (82%)
Writing library : XviD 1.2.1 (UTC 2008-12-04)

Audio
ID : 1
Format : AC-3
Format/Info : Audio Coding 3
Mode extension : CM (complete main)
Format settings, Endianness : Big
Codec ID : 2000
Duration : 1 h 31 min
Bit rate mode : Constant
Bit rate : 384 kb/s
Channel(s) : 2 channels
Channel positions : Front: L R
Sampling rate : 48.0 kHz
Frame rate : 31.250 FPS (1536 spf)
Compression mode : Lossy
Stream size : 251 MiB (18%)
Alignment : Split accross interleaves
Interleave, duration : 42 ms (1.00 video frame)
Interleave, preload duration : 500 ms


Имеется рекламаpiratbit.org



Скачать Монстры существуют через торрент http://i1.imageban.ru/out/2016/11/14/f1516fe48940cb8db57dfb4315860250.jpg Скачать фильм Монстры существуют через торрент бесплантно в хорошем качестве Описание: Мать с 10-летней дочерью оказались в ловушке в лесу. Что-то скрывается в этом лесу. Что-то, по звуку непохожее на все, что они ... 8.6 10 16
Торрент: Зарегистрирован [2016-11-14 02:49] · скачан: 456 раз
Статус: T временная
Размер: 1.37 GB
Как cкачать? Как скачать Монстры существуют через торрент | UTorrent

28-11-2019 20:33  

Отключить всю рекламу на сайте


14-11-2016 19:41 Монстры существуют Скачать торрент  

Любители ужиков вообще не избалованы хорошими фильмами.Снимают один мусор.Если закрыть глаза на некоторые недочёты,то этот вполне сносный.И семейную драму подпустили.Смотреть можно.piratbit.org



14-11-2016 21:22 Монстры существуют Скачать торрент  

как фильм?piratbit.org



15-11-2016 03:30 Монстры существуют Скачать торрент  

вроде среднякpiratbit.org



16-11-2016 12:15 Монстры существуют Скачать торрент  

ерунда.piratbit.org



16-11-2016 19:22 Монстры существуют Скачать торрент  

затянутое долгое кино в итоге не о чемpiratbit.org



21-11-2016 17:17 Монстры существуют Скачать торрент  

Полная х...ня извините конечно!!! 45 минут смотрел и вырубил на хрен этот шлакpiratbit.org



    Дорогой пользователь! Огромная просьба, поблагодарите релизера, оцените раздачу и оставьте свои комментарий, если Вы скачали Монстры существуют через торрент бесплатно! Внесите свою лепту в развитие PiratBit!
    Комментировать посты могут только пользователи прошедшие не сложную регистрацию
    Показать сообщения:    

    Монстры существуют через торрент
    Скачать бесплатно Монстры существуют
    Монстры существуют скачать торрент
    Монстры существуют смотреть онлайн
    Cкачать фильм Монстры существуют бесплатно
    Монстры существуют скачать торрент в хорошем качестве
    Монстры существуют смотреть онлайн бесплатно в хорошем качестве


    Вы не можете начинать темы
    Вы не можете отвечать на сообщения
    Вы не можете редактировать свои сообщения
    Вы не можете удалять свои сообщения
    Вы не можете голосовать в опросах
    Вы не можете прикреплять файлы к сообщениям
    Вы можете скачивать файлы