Лицензия

MVO

1

1 сезон

Лицензия

Лицензия

13

MVO

1 сезон

Deluxe Edition

pack

Рекомендуем

30

Repack

ВАЖНО

ВАЖНО

Ghostwire

RePack

jed

RePack

fifa19

RePack

RDR2

RePack

NEED FOR SPEED™ PAYBACK

RePack

Кинопоиск HD

 Острые козырьки 6 сезон

6 сезон

FAR CRY 6

RePack

Лицензия

MVO

1

1 сезон

1 сезон

Лицензия

  

Искатели (Михаил Шапиро) [1956, СССР, драма, военный, биография, SATRip от AVP Studio]

Искатели через торрент piratbit.org

Размер: 745 MB | Добавлен: 5 лет 10 мес. назад | Торрент скачан:11 раз
Смотреть онлайн Искатели | Скачать   

15-11-2016 08:17 Искатели Скачать торрент  

Искатели
Страна: СССР
Производство: Ленфильм

Жанр: драма, военный, биография
Год выпуска: 1956
Продолжительность: 01:37:13

Перевод: Не требуется
Cубтитры: нет
Оригинальная аудиодорожка: русский

Режиссер: Михаил Шапиро

В ролях:
Евгений Матвеев, Игорь Горбачёв, Маргарита Юрьева, Майя Блинова, Нина Мамаева, Давид Волосов, Михаил Екатерининский, Ефим Копелян, Владимир Косарев, Игнат Лейрер, Георгий Самойлов, Александр Соколов, Глеб Флоринский, Антоний Ходурский, Виктор Чекмарёв, Герман Хованов...
Полный список актёров

Описание:
По одноименному роману Даниила Гранина.
Во время второй мировой войны в поисках места повреждения телефонной линии погибает друг инженера Лобанова. Наступают мирные дни. Лобанов отказывается от работы в НИИ и устраивается на опытный завод, где по его мнению есть все возможности для создания прибора, определяющего на расстоянии повреждения в электрических кабелях. Молодой ученый зачисляется заведующим лаборатории и пока не предполагает, что основные силы будут направлены на борьбу с бюрократизмом и очковтирательством.

Источник: DVB
Качество видео: SATRip
Формат видео: AVI

Видео: 576x432 (4:3), 25 fps, XviD ~ 933 kbps avg, 0.150 bit/pixel
Аудио: 48 kHz, MP3 2.0, 128 kbps

Раздача от:
Общее
Полное имя : Iskateli.1956.SATRip-745_[New-team]_by_AVP_Studio.avi
Формат : AVI
Формат/Информация : Audio Video Interleave
Размер файла : 745 Мбайт
Продолжительность : 1 ч. 37 м.
Общий поток : 1071 Кбит/сек
Программа кодирования : VirtualDubMod 1.5.10.3 | www.virtualdub-fr.org || (build 2550/release)
Библиотека кодирования : VirtualDubMod build 2550/release

Видео
Идентификатор : 0
Формат : MPEG-4 Visual
Профиль формата : Advanced Simple@L5
Параметр BVOP формата : 1
Параметр QPel формата : Нет
Параметр GMC формата : Без точки перехода
Параметр матрицы формата : Выборочная
Идентификатор кодека : XVID
Идентификатор кодека/Подсказка : XviD
Продолжительность : 1 ч. 37 м.
Битрейт : 933 Кбит/сек
Ширина : 576 пикселей
Высота : 432 пикселя
Соотношение сторон : 4:3
Частота кадров : 25,000 кадров/сек
Цветовое пространство : YUV
Субдискретизация насыщенности : 4:2:0
Битовая глубина : 8 бит
Тип развёртки : Прогрессивная
Метод сжатия : С потерями
Бит/(Пиксели*Кадры) : 0.150
Размер потока : 649 Мбайт (87%)
Библиотека кодирования : XviD 1.2.1 (UTC 2008-12-04)

Аудио
Идентификатор : 1
Формат : MPEG Audio
Версия формата : Version 1
Профиль формата : Layer 3
Идентификатор кодека : 55
Идентификатор кодека/Подсказка : MP3
Продолжительность : 1 ч. 37 м.
Вид битрейта : Постоянный
Битрейт : 128 Кбит/сек
Каналы : 2 канала
Частота : 48,0 КГц
Метод сжатия : С потерями
Размер потока : 89,0 Мбайт (12%)
Выравнивание : Соединение по промежуткам
Продолжительность промежутка : 40 мс. (1,00 видеокадр)
Время предзагрузки промежутка : 504 мс.
Библиотека кодирования : LAME3.99r
Настройки программы : -m s -V 4 -q 2 -lowpass 17 -b 128



Скачать Искатели через торрент http://s018.radikal.ru/i504/1611/f1/12fe0329d760.png Скачать, смотреть онлайн Искатели бесплантно в хорошем качестве Описание:По одноименному роману Даниила Гранина.Во время второй мировой войны в поисках места повреждения телефонной линии погибает друг ... 5 10 1
Info! Золотая раздача, скачанное не засчитывается.
Торрент: Зарегистрирован [2016-11-15 08:17] · скачан: 11 раз
Статус: √ проверено
Размер: 745 MB
Как cкачать? Как скачать Искатели через торрент | UTorrent

% Раздел Тема Автор DL S | L
Кино СССР [ 1.09 GB ] Искатели | | SATRip-AVC от AVP Studio AVP Studio Скачать
1 | 0
Кино СССР [ 1.09 GB ] Искатели | | SATRip от AVP Studio AVP Studio Скачать
1 | 0

28-11-2019 20:33  

Отключить вcю реклaмy на сайте

    Дорогой пользователь! Огромная просьба, поблагодарите релизера, оцените раздачу и оставьте свои комментарий, если Вы скачали Искатели через торрент бесплатно!!
    Комментировать посты могут только пользователи прошедшие не сложную регистрацию
    Показать сообщения:    


    Искатели через торрент
    Скачать бесплатно Искатели
    Искатели скачать торрент
    Искатели смотреть онлайн
    Cкачать фильм Искатели бесплатно
    Искатели скачать торрент в хорошем качестве
    Искатели смотреть онлайн бесплатно в хорошем качестве
    Вы не можете начинать темы
    Вы не можете отвечать на сообщения
    Вы не можете редактировать свои сообщения
    Вы не можете удалять свои сообщения
    Вы не можете голосовать в опросах
    Вы не можете прикреплять файлы к сообщениям
    Вы можете скачивать файлы