2 сезон

iTunes

WEBRip

1

2 сезон

iTunes

1 сезон

1 сезон

RePack

30

Новинка

ВАЖНО

ИГРА 18+

pack

RePack

MK11
pack

Легкие деньги

RePack

jed

RePack

fifa19

RePack

RDR2

RePack

NEED FOR SPEED™ PAYBACK

4 сезон

9 сезон

Бесстыжие 9 сезон

Все сериалы

все сериалы на PB.wtf

RePack

FAR CRY 5

Anonymous, доброй ночи, мы не успеваем собрать деньги на оплату серверов за февраль, помогите нам пожалуйста в это трудное время. В качестве благодарности мы отключим Вам всю рекламу на сайте (укажите свой ник в строку Ваше имя)!

×
  
Magnet ссылка

Пеликан / Пелікан / Nicostratos le pélican (Оливье Орле) [2011, драма, комедия, семейный, BDRip-AVC] [Ukr MVO] piratbit.org

Пеликан через торрент piratbit.org

Размер: 2.34 GB | Добавлен: 4 года 3 мес. назад | Торрент скачан:14 раз
Скачать  

15-11-2016 16:48 Пеликан Скачать торрент  

Пеликан / Пелікан / Nicostratos le pélican«Удивительная история дружбы» Страна: Франция, Греция
Жанр: драма, комедия, семейный
Год выпуска: 2011
Продолжительность: 01:31:57
Перевод: Украинский (профессиональный, многоголосый) [ТТП]
Cубтитры: украинские
Оригинальная аудиодорожка: французский

Режиссер: Оливье Орле / Olivier Horlait

В ролях: Эмир Кустурица (Démosthène), Тибо Ле Геллек (Yannis), Джейд-Роуз Паркер (Angeliki), Франсуа-Ксавье Демезон (Aristote), Геннадиос Пацис (Popa Kosmas), Валериан де Вилленьюв (Mme Karoussos), Ивис Нэдот (Le capitaine du cargo), Нтинос Понтикопоулос (Moine Karoussos), Димитрис Сарикизоуглоу (Moine prudent), Сократис Пацикас (Moine gourmand), Вассилис Бацакоуцас (Le guide touristique), Вики Марагаки (La vendengeuse), Моника МакШейн (La touriste américaine)

Описание: После смерти жены мужчина отказывается выходить на улицу и не хочет общаться с единственным сыном. Жизнь теряет смысл, перестает для него существовать. Однажды мальчик находит птенца пеликана, которого решает оставить у себя. Он выкармливает птицу, и между ними завязываются теплые дружеские отношения. Пеликан помогает мальчику вновь обрести своего отца и возродить его к жизни.




Качество видео: BDRip-AVC исходник BDRemux
Формат видео: MKV
Видео: MPEG-4 AVC Video / 3000 Кбит/сек / 1040 х 442 / 24,000 / High Profile 4.1
Аудио 1: : 48 kHz, AC3 Dolby Digital, 2 ch, ~192 kbps |Ukr MVO|
Аудио 2: : 48 kHz, AC3 Dolby Digital, 3/2 (L,C,R,l,r) + LFE ch, ~448 kbps [French]
General
Unique ID : 238636235609409812773265668710274762527 (0xB387AACD76443E918153A0AA4551071F)
Complete name : E:\Nicostratos le pélican (2011) BDRip-AVC [UKR,FRE] [Hurtom].mkv
Format : Matroska
Format version : Version 4 / Version 2
File size : 2.34 GiB
Duration : 1h 31mn
Overall bit rate : 3 641 Kbps
Encoded date : UTC 2016-11-15 14:30:21
Writing application : mkvmerge v7.8.0 ('River Man') 64bit built on Mar 27 2015 16:31:37
Writing library : libebml v1.3.1 + libmatroska v1.4.2

Video
ID : 1
Format : AVC
Format/Info : Advanced Video Codec
Format profile : High@L4.1
Format settings, CABAC : Yes
Format settings, ReFrames : 12 frames
Codec ID : V_MPEG4/ISO/AVC
Duration : 1h 31mn
Bit rate : 3 000 Kbps
Width : 1 040 pixels
Height : 442 pixels
Display aspect ratio : 2.35:1
Frame rate mode : Constant
Frame rate : 24.000 fps
Color space : YUV
Chroma subsampling : 4:2:0
Bit depth : 8 bits
Scan type : Progressive
Bits/(Pixel*Frame) : 0.272
Stream size : 1.88 GiB (80%)
Title : Пелікан / Nicostratos le pélican (2011) BDRip-AVC | HQCLUB by Deep Fusion
Writing library : x264 core 125 r2200 999b753
Encoding settings : cabac=1 / ref=12 / deblock=1:-3:-3 / analyse=0x3:0x113 / me=umh / subme=11 / psy=1 / psy_rd=1.03:0.02 / mixed_ref=1 / me_range=64 / chroma_me=1 / trellis=2 / 8x8dct=1 / cqm=0 / deadzone=21,11 / fast_pskip=0 / chroma_qp_offset=-5 / threads=6 / lookahead_threads=1 / sliced_threads=0 / nr=0 / decimate=1 / interlaced=0 / bluray_compat=0 / constrained_intra=0 / bframes=12 / b_pyramid=2 / b_adapt=2 / b_bias=0 / direct=1 / weightb=1 / open_gop=0 / weightp=2 / keyint=240 / keyint_min=24 / scenecut=40 / intra_refresh=0 / rc_lookahead=60 / rc=2pass / mbtree=0 / bitrate=3000 / ratetol=1.0 / qcomp=0.60 / qpmin=10 / qpmax=69 / qpstep=4 / cplxblur=20.0 / qblur=0.5 / vbv_maxrate=62500 / vbv_bufsize=50000 / nal_hrd=none / ip_ratio=1.40 / pb_ratio=1.30 / aq=1:0.90
Language : French
Default : Yes
Forced : No

Audio #1
ID : 2
Format : AC-3
Format/Info : Audio Coding 3
Mode extension : CM (complete main)
Format settings, Endianness : Big
Codec ID : A_AC3
Duration : 1h 31mn
Bit rate mode : Constant
Bit rate : 192 Kbps
Channel(s) : 2 channels
Channel positions : Front: L R
Sampling rate : 48.0 KHz
Compression mode : Lossy
Stream size : 126 MiB (5%)
Title : TTP
Language : Ukrainian
Default : Yes
Forced : Yes

Audio #2
ID : 3
Format : AC-3
Format/Info : Audio Coding 3
Mode extension : CM (complete main)
Format settings, Endianness : Big
Codec ID : A_AC3
Duration : 1h 31mn
Bit rate mode : Constant
Bit rate : 448 Kbps
Channel(s) : 6 channels
Channel positions : Front: L C R, Side: L R, LFE
Sampling rate : 48.0 KHz
Compression mode : Lossy
Stream size : 295 MiB (12%)
Title : Оригінал
Language : French
Default : No
Forced : No

Text
ID : 4
Format : UTF-8
Codec ID : S_TEXT/UTF8
Codec ID/Info : UTF-8 Plain Text
Title : Українська (повні)
Language : Ukrainian
Default : No
Forced : No

Menu
00:00:00.000 : en:Chapter 1
00:09:23.375 : en:Chapter 2
00:20:06.250 : en:Chapter 3
00:30:33.083 : en:Chapter 4
00:42:02.042 : en:Chapter 5
00:52:53.125 : en:Chapter 6
01:02:23.000 : en:Chapter 7
01:12:04.708 : en:Chapter 8
01:21:48.167 : en:Chapter 9
piratbit.org



Скачать Пеликан через торрент http://i83.fastpic.ru/big/2016/1115/1b/ffa136eecd76c65a71c93c4891c3bd1b.jpg Скачать фильм Пеликан через торрент бесплантно в хорошем качестве Описание: После смерти жены мужчина отказывается выходить на улицу и не хочет общаться с единственным сыном. Жизнь теряет смысл, перестает ... 10 10 2
Торрент: Зарегистрирован [2016-11-15 16:48] · скачан: 14 раз
Статус: √ проверено
Размер: 2.34 GB
Как cкачать? Как скачать Пеликан через торрент | UTorrent

% Раздел Тема Автор DL S | L
Фильмы [HD 720p, 1080p] (Хороший звук DUB, MVO) [ 4.59 GB ] Пеликан / Nicostratos le pélican [2011 BDRip лицензия] ~Relizer~ Скачать
1 | 0
Фильмы 2011 [ 1.37 GB ] Пеликан / Nicostratos le pélican [2011 DVDRip лицензия] SD Скачать
1 | 0
Фильмы 2011 [ 1.46 GB ] Пеликан / Nicostratos le pélican [2011 DVDRip] shuller Скачать
1 | 0
Фильмы 2011 [ 2.05 GB ] Пеликан / Nicostratos le pélican [2011 DVDRip] 2GB shuller Скачать
1 | 0

28-11-2019 20:33  

Отключить всю рекламу на сайте

    Дорогой пользователь! Огромная просьба, поблагодарите релизера, оцените раздачу и оставьте свои комментарий, если Вы скачали Пеликан через торрент бесплатно! Внесите свою лепту в развитие PiratBit!
    Комментировать посты могут только пользователи прошедшие не сложную регистрацию
    Показать сообщения:    

    Пеликан через торрент
    Скачать бесплатно Пеликан
    Пеликан скачать торрент
    Пеликан смотреть онлайн
    Cкачать фильм Пеликан бесплатно
    Пеликан скачать торрент в хорошем качестве
    Пеликан смотреть онлайн бесплатно в хорошем качестве


    Вы не можете начинать темы
    Вы не можете отвечать на сообщения
    Вы не можете редактировать свои сообщения
    Вы не можете удалять свои сообщения
    Вы не можете голосовать в опросах
    Вы не можете прикреплять файлы к сообщениям
    Вы можете скачивать файлы