1 сезон

3 сезон

iTunes

1

iTunes

DUB Netflix

iTunes

13

1 сезон

RePack

30

Deluxe

pack

Легкие деньги

ВАЖНО

ИГРА 18+

pack

RePack

MK11

RePack

jed

RePack

fifa19

RePack

RDR2

RePack

NEED FOR SPEED™ PAYBACK

4 сезон

9 сезон

Бесстыжие 9 сезон

Все сериалы

все сериалы на PB.wtf

RePack

FAR CRY 5

Anonymous, доброй ночи, мы не успеваем до 1 числа собрать деньги на оплату серверов, помогите нам пожалуйста в это трудное время. В качестве благодарности мы отключим Вам всю рекламу на сайте (укажите свой ник в строку Ваше имя)!

×
  
Magnet ссылка

Отряд самоубийц / Suicide Squad (Дэвид Эйр) [2016, фантастика, фэнтези, боевик, WEB-DLRip] [Theatrical Cut] Дубляж - [Лицензия / iTunes] piratbit.org

Отряд самоубийц через торрент piratbit.org

Раздают: 2 [ 132 KB/s ]
Размер: 1.46 GB | Добавлен: 4 года 7 мес. назад | Торрент скачан:1200 раз
Скачать  

15-11-2016 20:36 Отряд самоубийц Скачать торрент  

Отряд самоубийц / Suicide Squad
Театральная версия / Theatrical Cut

Год выпуска: 2016
Страна: США
Жанр: фантастика, фэнтези, боевик, приключения

Продолжительность: 02:02:50
Перевод: Дубляж - [Лицензия / iTunes]
Субтитры: Русские форсированные (отдельно)
Режиссер: Дэвид Эйр
В ролях:

Марго Робби (Harley Quinn), Уилл Смит (Deadshot), Джаред Лето (The Joker), Джай Кортни (George Harkness / Captain Boomerang), Кара Делевинь (June Moone / Enchantress), Джей Эрнандес (Diablo), Юэль Киннаман (Rick Flag), Виола Дэвис (Amanda Waller), Адевале Акинойе-Агбаже (Killer Croc), Скотт Иствуд (Lieutenant GQ Edwards), Джейм Фицсаймонс (Sergeant Ames Bravo 14), Айк Баринхолц (Griggs)
Описание:
Правительство решает дать команде суперзлодеев шанс на искупление. Подвох в том, что их отправляют на миссию, где они, вероятнее всего, погибнут.
Рейтинг:

MPAA: PG-13 - Детям до 13 лет просмотр не желателен
Качество: WEB-DLRip
Формат: AVI
Видео: XviD, 720x304 (2.35:1), 1393 kbps, 23,976 fps, 0,266 bpp
Аудио: AC3 / 5.1 / 48 kHz / 384 kbps /
Релиз от: MegaPeer
General
Complete name : E:\Torrent\film\Suicide.Squad.2016.WEB-DLRip.1.46GB.MegaPeer\Suicide.Squad.2016.WEB-DLRip.1.46GB.MegaPeer.avi
Format : AVI
Format/Info : Audio Video Interleave
File size : 1.46 GiB
Duration : 2 h 2 min
Overall bit rate : 1 700 kb/s

Video
ID : 0
Format : MPEG-4 Visual
Format profile : Advanced Simple@L5
Format settings, BVOP : 1
Format settings, QPel : No
Format settings, GMC : No warppoints
Format settings, Matrix : Custom
Codec ID : XVID
Codec ID/Hint : XviD
Duration : 2 h 2 min
Source duration : 1 h 6 min
Bit rate : 1 394 kb/s
Width : 720 pixels
Height : 304 pixels
Display aspect ratio : 2.35:1
Frame rate : 23.976 (24000/1001) FPS
Color space : YUV
Chroma subsampling : 4:2:0
Bit depth : 8 bits
Scan type : Progressive
Compression mode : Lossy
Bits/(Pixel*Frame) : 0.266
Stream size : 661 MiB (44%)
Writing library : XviD 73

Audio
ID : 1
Format : AC-3
Format/Info : Audio Coding 3
Mode extension : CM (complete main)
Format settings, Endianness : Big
Codec ID : 2000
Duration : 2 h 2 min
Source duration : 1 h 6 min
Bit rate mode : Constant
Bit rate : 384 kb/s
Channel(s) : 6 channels
Channel positions : Front: L C R, Side: L R, LFE
Sampling rate : 48.0 kHz
Frame rate : 31.250 FPS (1536 spf)
Compression mode : Lossy
Stream size : 182 MiB (12%)
Alignment : Aligned on interleaves
Interleave, duration : 64 ms (1.53 video frames)
Interleave, preload duration : 192 ms
Title : iTunes
piratbit.org



Скачать Отряд самоубийц через торрент http://i6.imageban.ru/out/2016/11/15/8d5eefbef4d927ba4202ef34b9c5f47d.png Скачать фильм Отряд самоубийц через торрент бесплантно в хорошем качестве Описание: Правительство решает дать команде суперзлодеев шанс на искупление. Подвох в том, что их отправляют на миссию, где они, вероятнее ... 9.4 10 21
Info! Золотая раздача, скачанное не засчитывается.
Торрент: Зарегистрирован [2016-11-15 20:36] · скачан: 1 200 раз
Статус: √ проверено
Размер: 1.46 GB
Как cкачать? Как скачать Отряд самоубийц через торрент | UTorrent

% Раздел Тема Автор DL S | L
Фильмы (HD 720p, 1080p) (48-60 fps) [ 4.35 GB ] Отряд самоубийц / Suicide Squad [2016 BDRip 720p / 60 FPS + AVO] от R.G. HD-Films slaventi-69 Скачать
2 | 0
Ultra HD (UHD: 2K, 4K, 8K) — видео сверхвысокой чёткости [ 28.35 GB ] Отряд самоубийц / Suicide Squad [2016 UHD BDRip 2160p SDR] DUB sheker187 Скачать
1 | 0
Ultra HD (UHD: 2K, 4K, 8K) — видео сверхвысокой чёткости [ 58.32 GB ] Отряд самоубийц / Suicide Squad [2016 UHD Blu-Ray EUR 2160p] - [] sheker187 Скачать
1 | 0
Ultra HD (UHD: 2K, 4K, 8K) — видео сверхвысокой чёткости [ 52.07 GB ] Отряд самоубийц / Suicide Squad [2016 UHD BDRemux 2160p] DUB + AVO [А.Матвеев] sheker187 Скачать
1 | 0
Ultra HD (UHD: 2K, 4K, 8K) — видео сверхвысокой чёткости [ 48.19 GB ] Отряд самоубийц / Suicide Squad [2016 UHD BDRemux 2160p] DUB+AVO [] bober100 Скачать
1 | 0
Фильмы (Blu-ray, BD-Remux, HDDVD) [ 25.5 GB ] Отряд самоубийц / Suicide Squad [2016 BD Remux 1080p] [ Blu-Ray CEE] DUB+AVO bober100 Скачать
1 | 0
Фильмы (HD 720p, 1080p) (48-60 fps) [ 4.36 GB ] Отряд самоубийц / Suicide Squad [2016 BDRip 720p 60 fps от еnvy / NNNB] [Theatrical Cut] DUB еnvy Скачать
21 | 0

28-11-2019 20:33  

Отключить всю рекламу на сайте

17-11-2016 09:30 Отряд самоубийц Скачать торрент  

нормал смотреть можноpiratbit.org



17-11-2016 15:36 Отряд самоубийц Скачать торрент  

Полный шлак.piratbit.org



    Дорогой пользователь! Огромная просьба, поблагодарите релизера, оцените раздачу и оставьте свои комментарий, если Вы скачали Отряд самоубийц через торрент бесплатно! Внесите свою лепту в развитие PiratBit!
    Комментировать посты могут только пользователи прошедшие не сложную регистрацию
    Показать сообщения:    

    Отряд самоубийц через торрент
    Скачать бесплатно Отряд самоубийц
    Отряд самоубийц скачать торрент
    Отряд самоубийц смотреть онлайн
    Cкачать фильм Отряд самоубийц бесплатно
    Отряд самоубийц скачать торрент в хорошем качестве
    Отряд самоубийц смотреть онлайн бесплатно в хорошем качестве


    Вы не можете начинать темы
    Вы не можете отвечать на сообщения
    Вы не можете редактировать свои сообщения
    Вы не можете удалять свои сообщения
    Вы не можете голосовать в опросах
    Вы не можете прикреплять файлы к сообщениям
    Вы можете скачивать файлы