Доктор Стрэндж

Лицензия

Добыча

MVO

Дом дракона

1 сезон

Тор

Лицензия

Мэверик

Лицензия

Там, где раки поют

MVO

Властелин колец

1 сезон

Ultimate

pack

Рекомендуем

30

Repack

ВАЖНО

ВАЖНО

Ghostwire

RePack

jed

RePack

nioh2

RePack

RDR2

RePack

NEED FOR SPEED™ PAYBACK

RePack

скачать торрент

Кинопоиск HD

Острые козырьки 6 сезон

6 сезон

FAR CRY 6

RePack

скачать торрент

Лицензия

скачать торрент

MVO

1

1 сезон

скачать торрент

1 сезон

скачать торрент

Лицензия

  

Дети солнца (Алексей Швачко) [1956, СССР, драма, SATRip-AVC от AVP Studio]

Дети солнца через торрент piratbit.org

Размер: 2.18 GB | Добавлен: 5 лет 10 мес. назад | Торрент скачан:10 раз
Смотреть онлайн Дети солнца | Скачать   

19-11-2016 08:35 Дети солнца Скачать торрент  

Дети солнца
Страна: СССР
Производство: Киевская студия художественных фильмов (Русский драматический театр им. Леси Украинки)

Жанр: драма
Год выпуска: 1956
Продолжительность: 02:20:53

Перевод: Не требуется
Cубтитры: нет
Оригинальная аудиодорожка: русский

Режиссер: Алексей Швачко

В ролях:
Михаил Романов, Татьяна Семичёва, Вера Предаевич, Лидия Карташова, Юрий Лавров, Виктор Мягкий, Анна Николаева, Алексей Бунин, Олег Борисов, Неонила Гнеповская, Моисей Розин, Елена Метакса, Сергей Петров, Алексей Быков, Галина Жирова, Борис Марин...
Полный список актёров

Описание:
По одноименной пьесе М. Горького.
Фильм-спектакль в постановке Киевского государственного русского драматического театра имени Леси Украинки. Режиссеры спектакля — Влад Нелли, Михаил Романов.
В эпоху перемен так трудно поймать мимолетное счастье… Начало XX века – это период расцвета науки и искусства и вместе с тем предвестие великой катастрофы. В экранизации пьесы Максима Горького поднимаются вечные темы любви, одиночества, отчуждения и надежды на фоне того удивительного времени.

Источник: DVB
Качество видео: SATRip-AVC
Формат видео: MKV

Видео: 688->752x564 (4:3), 25 fps, H264 ~ 2019 kbps avg, 0.208 bit/pixel
Аудио: 48 kHz, Dolby Digital AC3 2.0, 192 kbps

Раздача от:
Общее
Полное имя : Deti.solnca.1956.SATRip-AVC_[New-team]_by_AVP_Studio.mkv
Формат : Matroska
Версия формата : Version 2
Размер файла : 2,18 Гбайт
Продолжительность : 2 ч. 20 м.
Общий поток : 2213 Кбит/сек
Дата кодирования : UTC 2016-11-17 17:14:17
Программа кодирования : mkvmerge v6.1.0 ('Old Devil') built on Mar 4 2013 09:10:42
Библиотека кодирования : libebml v1.3.0 + libmatroska v1.4.0

Видео
Идентификатор : 1
Формат : AVC
Формат/Информация : Advanced Video Codec
Профиль формата : High@L4.1
Параметр CABAC формата : Да
Параметр ReFrames формата : 10 кадров
Идентификатор кодека : V_MPEG4/ISO/AVC
Продолжительность : 2 ч. 20 м.
Битрейт : 2019 Кбит/сек
Ширина : 688 пикселей
Высота : 564 пикселя
Соотношение сторон : 4:3
Режим частоты кадров : Постоянный
Частота кадров : 25,000 кадров/сек
Цветовое пространство : YUV
Субдискретизация насыщенности : 4:2:0
Битовая глубина : 8 бит
Тип развёртки : Прогрессивная
Бит/(Пиксели*Кадры) : 0.208
Размер потока : 1,95 Гбайт (89%)
Библиотека кодирования : x264 core 148 r2597 e86f3a1
Настройки программы : cabac=1 / ref=10 / deblock=1:-2:-1 / analyse=0x3:0x113 / me=umh / subme=10 / psy=1 / psy_rd=1.00:0.00 / mixed_ref=1 / me_range=32 / chroma_me=1 / trellis=2 / 8x8dct=1 / cqm=0 / deadzone=21,11 / fast_pskip=1 / chroma_qp_offset=-2 / threads=6 / lookahead_threads=1 / sliced_threads=0 / nr=0 / decimate=0 / interlaced=0 / bluray_compat=0 / constrained_intra=0 / bframes=8 / b_pyramid=2 / b_adapt=2 / b_bias=0 / direct=3 / weightb=1 / open_gop=0 / weightp=2 / keyint=250 / keyint_min=25 / scenecut=40 / intra_refresh=0 / rc=2pass / mbtree=0 / bitrate=2019 / ratetol=1.0 / qcomp=0.60 / qpmin=0 / qpmax=69 / qpstep=4 / cplxblur=20.0 / qblur=0.5 / ip_ratio=1.40 / pb_ratio=1.30 / aq=1:1.00
Default : Да
Forced : Нет

Аудио
Идентификатор : 2
Формат : AC-3
Формат/Информация : Audio Coding 3
Расширение режима : CM (complete main)
Параметр Endianness формата : Big
Идентификатор кодека : A_AC3
Продолжительность : 2 ч. 20 м.
Вид битрейта : Постоянный
Битрейт : 192 Кбит/сек
Каналы : 2 канала
Расположение каналов : Front: L R
Частота : 48,0 КГц
Частота кадров : 31,250 кадров/сек (1536 spf)
Битовая глубина : 16 бит
Метод сжатия : С потерями
Размер потока : 193 Мбайт (9%)
Default : Да
Forced : Нет



Скачать Дети солнца через торрент http://i069.radikal.ru/1611/7e/3d677afb78da.png Скачать, смотреть онлайн Дети солнца бесплантно в хорошем качестве Описание:По одноименной пьесе М. Горького.Фильм-спектакль в постановке Киевского государственного русского драматического театра имени Леси ... 10 10 1
Info! Золотая раздача, скачанное не засчитывается.
Торрент: Зарегистрирован [2016-11-19 08:35] · скачан: 10 раз
Статус: √ проверено
Размер: 2.18 GB
Как cкачать? Как скачать Дети солнца через торрент | UTorrent

% Раздел Тема Автор DL S | L
Кино СССР [ 1.46 GB ] Дети солнца | | SATRip от AVP Studio AVP Studio Скачать
1 | 0

28-11-2019 20:33  

Отключить вcю реклaмy на сайте

    Дорогой пользователь! Огромная просьба, поблагодарите релизера, оцените раздачу и оставьте свои комментарий, если Вы скачали Дети солнца через торрент бесплатно!!
    Комментировать посты могут только пользователи прошедшие не сложную регистрацию
    Показать сообщения:    


    Дети солнца через торрент
    Скачать бесплатно Дети солнца
    Дети солнца скачать торрент
    Дети солнца смотреть онлайн
    Cкачать фильм Дети солнца бесплатно
    Дети солнца скачать торрент в хорошем качестве
    Дети солнца смотреть онлайн бесплатно в хорошем качестве
    Вы не можете начинать темы
    Вы не можете отвечать на сообщения
    Вы не можете редактировать свои сообщения
    Вы не можете удалять свои сообщения
    Вы не можете голосовать в опросах
    Вы не можете прикреплять файлы к сообщениям
    Вы можете скачивать файлы