1 сезон

3 сезон

iTunes

1

iTunes

DUB Netflix

iTunes

13

1 сезон

RePack

30

Deluxe

pack

Легкие деньги

ВАЖНО

ИГРА 18+

pack

RePack

MK11

RePack

jed

RePack

fifa19

RePack

RDR2

RePack

NEED FOR SPEED™ PAYBACK

4 сезон

9 сезон

Бесстыжие 9 сезон

Все сериалы

все сериалы на PB.wtf

RePack

FAR CRY 5

Anonymous, добрый день, мы не успеваем до 1 числа собрать деньги на оплату серверов, помогите нам пожалуйста в это трудное время. В качестве благодарности мы отключим Вам всю рекламу на сайте (укажите свой ник в строку Ваше имя)!

×
  
Magnet ссылка

Йоганутые / Любители йоги / Yoga Hosers (Кевин Смит) [2016 г., ужасы, фэнтези, триллер, комедия, HDRip, Дубляж "iTunes"] piratbit.org

Йоганутые через торрент piratbit.org

Размер: 1.46 GB | Добавлен: 4 года 6 мес. назад | Торрент скачан:273 раза
Скачать  

20-11-2016 18:18 Йоганутые Скачать торрент  

Йоганутые / Любители йоги / Yoga Hosers
Год выпуска: 2016
Страна: США / Abbolita Productions, Destro Films, Invincible Pictures
Жанр: ужасы, фэнтези, триллер, комедия
Продолжительность: 01:27:37
Перевод: Дубляж (iTunes)

Режиссер: Кевин Смит

rating

В ролях: Лили-Роуз Мелоди Депп, Харли Куинн Смит, Ванесса Паради, Остин Роберт Батлер, Тайлер Пози, Джонни Депп, Джастин Лонг, Ральф Гармен, Хэйли Джоэл Осмент, Дженезис Родригез

Описание: Колин Колетт и Колин МакКензи из Манитобы помешаны на йоге. В то же время они вынуждены подрабатывать после школы в небольшом магазинчике, и эту работу они терпеть не могут. Однако долго скучать школьницам не приходится: «вселенское зло», возникшее в прямом смысле слова «из-под земли», грозит им сорвать долгожданную вечеринку для старшеклассников. Тогда девушки объединяются с охотником за головами - Ги Ла Пойнтом, чтобы бороться с демонами зла с помощью всех «семи чакр и одной позы воина».

Качество: HDRip
Формат: AVI
Видео кодек: XviD
Аудио кодек: AC3
Видео: 720x304 (2.37:1), 23.976 fps, XviD build 50 ~1989 kbps avg, 0.38 bit/pixel
Аудио: 48 kHz, AC3 Dolby Digital, 3/2 (L,C,R,l,r) + LFE ch, ~384 kbps

Общее
Полное имя : F:\ФИЛЬМЫ\Йоганутые.2016.D.HDRip.avi
Формат : AVI
Формат/Информация : Audio Video Interleave
Размер файла : 1,46 Гбайт
Продолжительность : 1 ч. 27 м.
Общий поток : 2383 Кбит/сек
Программа кодирования : VirtualDubMod 1.5.10.3 | www.virtualdub-fr.org || (build 2550/release)
Библиотека кодирования : VirtualDubMod build 2550/release

Видео
Идентификатор : 0
Формат : MPEG-4 Visual
Профиль формата : Advanced Simple@L5
Параметр BVOP формата : 1
Параметр QPel формата : Нет
Параметр GMC формата : Без точки перехода
Параметр матрицы формата : Default (MPEG)
Идентификатор кодека : XVID
Идентификатор кодека/Подсказка : XviD
Продолжительность : 1 ч. 27 м.
Битрейт : 1989 Кбит/сек
Ширина : 720 пикселей
Высота : 304 пикселя
Соотношение сторон : 2,35:1
Частота кадров : 23,976 (24000/1001) кадра/сек
Частота кадров в оригинале : 23,976 (23976/1000) кадра/сек
Цветовое пространство : YUV
Субдискретизация насыщенности : 4:2:0
Битовая глубина : 8 бит
Тип развёртки : Прогрессивная
Метод сжатия : С потерями
Бит/(Пиксели*Кадры) : 0.379
Размер потока : 1,22 Гбайт (83%)
Библиотека кодирования : XviD 1.2.1 (UTC 2008-12-04)

Аудио
Идентификатор : 1
Формат : AC-3
Формат/Информация : Audio Coding 3
Расширение режима : CM (complete main)
Параметр Endianness формата : Big
Идентификатор кодека : 2000
Продолжительность : 1 ч. 27 м.
Вид битрейта : Постоянный
Битрейт : 384 Кбит/сек
Каналы : 6 каналов
Расположение каналов : Front: L C R, Side: L R, LFE
Частота : 48,0 КГц
Частота кадров : 31,250 кадров/сек (1536 spf)
Битовая глубина : 16 бит
Метод сжатия : С потерями
Размер потока : 241 Мбайт (16%)
Выравнивание : Разделение по промежуткам
Продолжительность промежутка : 42 мс. (1,00 видеокадр)
Время предзагрузки промежутка : 500 мс.

piratbit.org



Скачать Йоганутые через торрент https://pic.kartinco.top/images/11/n98e8.jpg Скачать фильм Йоганутые через торрент бесплантно в хорошем качестве Описание: Колин Колетт и Колин МакКензи из Манитобы помешаны на йоге. В то же время они вынуждены подрабатывать после школы в небольшом ... 7.3 10 12
Торрент: Зарегистрирован [2016-11-20 18:22] · скачан: 273 раз
Статус: √ проверено
Размер: 1.46 GB
Как cкачать? Как скачать Йоганутые через торрент | UTorrent

28-11-2019 20:33  

Отключить всю рекламу на сайте

20-11-2016 19:06 Йоганутые Скачать торрент  

Интересное описание в конце "бороться с демонами зла с помощью всех семи чакр и одной позы воина".Это какая поза и не из камасутры случайно piratbit.org



20-11-2016 20:17 Йоганутые Скачать торрент  

roma 1976 писал(а):

Интересное описание в конце "бороться с демонами зла с помощью всех семи чакр и одной позы воина".Это какая поза и не из камасутры случайно

Это не Камасутра.Это мусор и помои в одном ведре.piratbit.org



21-11-2016 12:25 Йоганутые Скачать торрент  

фитишизм какойтоpiratbit.org



21-11-2016 15:57 Йоганутые Скачать торрент  

трэшак в худшем смысле этого слова! piratbit.org



22-11-2016 09:38 Йоганутые Скачать торрент  

Фильм Гамно !!!piratbit.org



24-11-2016 05:10 Йоганутые Скачать торрент  

KaLiNaC писал(а):

Фильм Гамно !!!

piratbit.org



    Дорогой пользователь! Огромная просьба, поблагодарите релизера, оцените раздачу и оставьте свои комментарий, если Вы скачали Йоганутые через торрент бесплатно! Внесите свою лепту в развитие PiratBit!
    Комментировать посты могут только пользователи прошедшие не сложную регистрацию
    Показать сообщения:    

    Йоганутые через торрент
    Скачать бесплатно Йоганутые
    Йоганутые скачать торрент
    Йоганутые смотреть онлайн
    Cкачать фильм Йоганутые бесплатно
    Йоганутые скачать торрент в хорошем качестве
    Йоганутые смотреть онлайн бесплатно в хорошем качестве


    Вы не можете начинать темы
    Вы не можете отвечать на сообщения
    Вы не можете редактировать свои сообщения
    Вы не можете удалять свои сообщения
    Вы не можете голосовать в опросах
    Вы не можете прикреплять файлы к сообщениям
    Вы можете скачивать файлы