1 сезон

3 сезон

iTunes

1

iTunes

DUB Netflix

iTunes

13

1 сезон

RePack

30

Deluxe

pack

Легкие деньги

ВАЖНО

ИГРА 18+

pack

RePack

MK11

RePack

jed

RePack

fifa19

RePack

RDR2

RePack

NEED FOR SPEED™ PAYBACK

4 сезон

9 сезон

Бесстыжие 9 сезон

Все сериалы

все сериалы на PB.wtf

RePack

FAR CRY 5

Anonymous, добрый день, мы не успеваем до 1 числа собрать деньги на оплату серверов, помогите нам пожалуйста в это трудное время. В качестве благодарности мы отключим Вам всю рекламу на сайте (укажите свой ник в строку Ваше имя)!

×
  
Magnet ссылка

Пит и его дракон / Pete's Dragon (Дэвид Лоури) [2016 г., фэнтези, приключения, семейный, BDRip-AVC] DUB [Лицензия] piratbit.org

Пит и его дракон через торрент piratbit.org

Раздают: 1 [ 0 KB/s ]
Размер: 1.46 GB | Добавлен: 4 года 7 мес. назад | Торрент скачан:2018 раз
Скачать  

21-11-2016 14:44 Пит и его дракон Скачать торрент  

Пит и его дракон / Pete's Dragon
Год выпуска: 2016
Страна: США
Жанр: фэнтези, приключения, семейный
Продолжительность: 01:42:45
Перевод: Профессиональный (полное дублирование) [Лицензия]
Субтитры: русские (полные + форс., форсированные субтитры дополнены надписями.)

Режиссер: Дэвид Лоури

rating

В ролях:

Оукс Фегли, Брайс Даллас Ховард, Роберт Редфорд, Карл Урбан, Гарет Ривз, Уэс Бентли, Оона Лоренс, Крэйг Холл, Исайя Уитлок-мл., Джим МакЛарти, Филип Грив

Описание:

В течение многих лет Мистер Мичем забавлял местных детишек сказочными историями о свирепом драконе, обитающим на севере, глубоко в лесах. Для его дочери Грейс все эти истории казались ничем иным как выдумкой, ровно до тех пор, пока она не встретила в лесу маленького мальчика по имени Пит. Пит уже долгое время живет в диком лесу, у него нет ни дома, ни семьи, зато есть замечательный друг - огромный зеленый дракон Эллиот. Грейс решает разгадать историю юного Пита, узнать всю правду о его семье и загадочном драконе, о котором ходит так много слухов и легенд.

Качество: BDRip-AVC
Формат: MKV
Видео кодек: H.264
Аудио кодек: AC3

Видео: 1012x422 (2,40:1), 23,976 fps, AVC MPEG-4 (x264), High@L4.1, 1586 Кbps avg, 0.155 bit/pixel
Аудио#1: 48 kHz, AC3 Dolby Digital, 3/2 (L,C,R,l,r) + LFE ch, ~448 kbps

Релиз от
Общее
Уникальный идентификатор : 178173603039491318610853604553983420414 (0x860AFCDC7BCA6C2996E3EB6304DE67FE)
Полное имя : C:\Pit.i.Ego.Drakon.2016.RUS.BDRip.x264.mkv
Формат : Matroska
Версия формата : Version 4 / Version 2
Размер файла : 1,46 Гбайт
Продолжительность : 1 ч. 42 м.
Общий поток : 2036 Кбит/сек
Название фильма : Pete's Dragon (2016)
Дата кодирования : UTC 2016-11-21 07:38:26
Программа кодирования : mkvmerge v5.9.0 ('On The Loose') built on Dec 15 2012 16:39:58
Библиотека кодирования : libebml v1.3.0 + libmatroska v1.4.0

Видео
Идентификатор : 1
Формат : AVC
Формат/Информация : Advanced Video Codec
Профиль формата : High@L4.1
Параметр CABAC формата : Да
Параметр ReFrames формата : 12 кадров
Идентификатор кодека : V_MPEG4/ISO/AVC
Продолжительность : 1 ч. 42 м.
Битрейт : 1586 Кбит/сек
Ширина : 1012 пикселей
Высота : 422 пикселя
Соотношение сторон : 2,40:1
Режим частоты кадров : Постоянный
Частота кадров : 23,976 кадра/сек
Цветовое пространство : YUV
Субдискретизация насыщенности : 4:2:0
Битовая глубина : 8 бит
Тип развёртки : Прогрессивная
Бит/(Пиксели*Кадры) : 0.155
Размер потока : 1,11 Гбайт (76%)
Заголовок : potroks
Библиотека кодирования : x264 core 146 r2538 121396c
Настройки программы : cabac=1 / ref=12 / deblock=1:-3:-3 / analyse=0x3:0x113 / me=umh / subme=11 / psy=1 / psy_rd=1.00:0.05 / mixed_ref=1 / me_range=48 / chroma_me=1 / trellis=2 / 8x8dct=1 / cqm=0 / deadzone=21,11 / fast_pskip=0 / chroma_qp_offset=-3 / threads=9 / lookahead_threads=2 / sliced_threads=0 / nr=0 / decimate=0 / interlaced=0 / bluray_compat=0 / constrained_intra=0 / bframes=13 / b_pyramid=2 / b_adapt=2 / b_bias=0 / direct=3 / weightb=1 / open_gop=0 / weightp=2 / keyint=240 / keyint_min=23 / scenecut=40 / intra_refresh=0 / rc_lookahead=60 / rc=2pass / mbtree=0 / bitrate=1586 / ratetol=1.0 / qcomp=0.70 / qpmin=0 / qpmax=69 / qpstep=4 / cplxblur=20.0 / qblur=0.5 / vbv_maxrate=14000 / vbv_bufsize=14000 / nal_hrd=none / filler=0 / ip_ratio=1.40 / pb_ratio=1.30 / aq=1:0.80
Язык : English
Default : Да
Forced : Нет

Аудио
Идентификатор : 2
Формат : AC-3
Формат/Информация : Audio Coding 3
Расширение режима : CM (complete main)
Параметр Endianness формата : Big
Идентификатор кодека : A_AC3
Продолжительность : 1 ч. 42 м.
Вид битрейта : Постоянный
Битрейт : 448 Кбит/сек
Каналы : 6 каналов
Расположение каналов : Front: L C R, Side: L R, LFE
Частота : 48,0 КГц
Частота кадров : 31,250 кадров/сек (1536 spf)
Битовая глубина : 16 бит
Метод сжатия : С потерями
Размер потока : 329 Мбайт (22%)
Заголовок : Dub | DD 5.1 @ 448 kbps
Язык : Russian
Default : Да
Forced : Нет

Текст #1
Идентификатор : 3
Формат : UTF-8
Идентификатор кодека : S_TEXT/UTF8
Идентификатор кодека/Информация : UTF-8 Plain Text
Заголовок : Forced
Язык : Russian
Default : Да
Forced : Нет

Текст #2
Идентификатор : 4
Формат : UTF-8
Идентификатор кодека : S_TEXT/UTF8
Идентификатор кодека/Информация : UTF-8 Plain Text
Заголовок : Full
Язык : Russian
Default : Нет
Forced : Нет

Меню
00:00:00.000 : en:Family Vacation
00:06:03.989 : en:The Tale of Dragons
00:09:46.669 : en:Playtime with Elliot
00:15:20.128 : en:Forest Ranger Grace
00:21:28.496 : en:A New Friend
00:30:23.447 : en:Hospital Escape
00:36:57.966 : en:Finding Elliot
00:44:03.057 : en:The Meacham Family
00:52:28.062 : en:Replaced
00:56:42.566 : en:The Truth
01:03:13.832 : en:Capture
01:10:07.078 : en:Escape Plan
01:17:17.508 : en:Standoff at the Bridge
01:26:46.034 : en:Together Again
01:32:26.750 : en:Epilogue
01:35:01.362 : en:Credits
скриншот  скриншот  скриншот  скриншот  
piratbit.org



Скачать Пит и его дракон через торрент https://pic1.kartinco.top/images/11/r2p26.jpg Скачать фильм Пит и его дракон через торрент бесплантно в хорошем качестве Описание: В течение многих лет Мистер Мичем забавлял местных детишек сказочными историями о свирепом драконе, обитающим на севере, глубоко ... 9.6 10 41
Info! Золотая раздача, скачанное не засчитывается.
Торрент: Зарегистрирован [2016-11-21 14:44] · скачан: 2 018 раз
Статус: √ проверено
Размер: 1.46 GB
Как cкачать? Как скачать Пит и его дракон через торрент | UTorrent

28-11-2019 20:33  

Отключить всю рекламу на сайте

28-11-2016 16:16 Пит и его дракон Скачать торрент  

А почему комментов нет??? Столько скачек....piratbit.org



28-11-2016 16:53 Пит и его дракон Скачать торрент  

Naletchik писал(а):

А почему комментов нет??? Столько скачек....

Беда однако мне тоже интересно?piratbit.org



29-11-2016 18:39 Пит и его дракон Скачать торрент  

детям до 10 летpiratbit.org



30-11-2016 04:51 Пит и его дракон Скачать торрент  

тимур121212 писал(а):

детям до 10 лет

Здесь по названию понятно)piratbit.org



    Дорогой пользователь! Огромная просьба, поблагодарите релизера, оцените раздачу и оставьте свои комментарий, если Вы скачали Пит и его дракон через торрент бесплатно! Внесите свою лепту в развитие PiratBit!
    Комментировать посты могут только пользователи прошедшие не сложную регистрацию
    Показать сообщения:    

    Пит и его дракон через торрент
    Скачать бесплатно Пит и его дракон
    Пит и его дракон скачать торрент
    Пит и его дракон смотреть онлайн
    Cкачать фильм Пит и его дракон бесплатно
    Пит и его дракон скачать торрент в хорошем качестве
    Пит и его дракон смотреть онлайн бесплатно в хорошем качестве


    Вы не можете начинать темы
    Вы не можете отвечать на сообщения
    Вы не можете редактировать свои сообщения
    Вы не можете удалять свои сообщения
    Вы не можете голосовать в опросах
    Вы не можете прикреплять файлы к сообщениям
    Вы можете скачивать файлы