Лицензия

MVO

1

1 сезон

Лицензия

Лицензия

13

MVO

1 сезон

Deluxe Edition

pack

Рекомендуем

30

Repack

ВАЖНО

ВАЖНО

Ghostwire

RePack

jed

RePack

fifa19

RePack

RDR2

RePack

NEED FOR SPEED™ PAYBACK

RePack

Кинопоиск HD

 Острые козырьки 6 сезон

6 сезон

FAR CRY 6

RePack

Лицензия

MVO

1

1 сезон

1 сезон

Лицензия

  

Есть такой парень (Виктор Ивченко) [1956, СССР, мелодрама, экранизация, DVDRip от AVP Studio]

Есть такой парень через торрент piratbit.org

Размер: 745 MB | Добавлен: 5 лет 10 мес. назад | Торрент скачан:10 раз
Смотреть онлайн Есть такой парень | Скачать   

22-11-2016 08:52 Есть такой парень Скачать торрент  

Есть такой парень
Страна: СССР
Производство: Киевская киностудия

Жанр: мелодрама, экранизация
Год выпуска: 1956
Продолжительность: 01:22:37

Перевод: Не требуется
Cубтитры: нет
Оригинальная аудиодорожка: русский

Режиссер: Виктор Ивченко

В ролях:
Альфред Шестопалов, Владимир Васильев (II), Николай Гринько, Олег Голубицкий, Алексей Бахарь, Нина Крачковская, Наталья Фатеева, Николай Бармин, Александр Смирнов, Константин Музыченко, Домиан Козачковский, Пётр Масоха, Елизавета Кузюрина, Екатерина Литвиненко...
Полный список актёров

Описание:
Экранизация романа А.Андреева "Широкое течение".
Убедившись в том, что любимая девушка увлечена другим, молодой рабочий Антон Корнилин "пошел под уклон": стал выпивать, опаздывать на работу и забывать о дружном коллективе. Инженер-конструктор Таня Оленина не дала погибнуть хорошему парню - и пришла коллеге на помощь...

Источник: DVD5 R5
Качество видео: DVDRip
Формат видео: AVI

Видео: 640x480 (4:3), 25 fps, XviD ~ 1123 kbps avg, 0.146 bit/pixel
Аудио: 48 kHz, MP3 2.0, 128 kbps

Раздача от:
Общее
Полное имя : Est.takoy.paren.1956.DVDRip-745_[New-team]_by_AVP_Studio.avi
Формат : AVI
Формат/Информация : Audio Video Interleave
Размер файла : 745 Мбайт
Продолжительность : 1 ч. 22 м.
Общий поток : 1261 Кбит/сек
Программа кодирования : VirtualDubMod 1.5.10.3 | www.virtualdub-fr.org || (build 2550/release)
Библиотека кодирования : VirtualDubMod build 2550/release

Видео
Идентификатор : 0
Формат : MPEG-4 Visual
Профиль формата : Advanced Simple@L5
Параметр BVOP формата : 1
Параметр QPel формата : Нет
Параметр GMC формата : Без точки перехода
Параметр матрицы формата : Выборочная
Идентификатор кодека : XVID
Идентификатор кодека/Подсказка : XviD
Продолжительность : 1 ч. 22 м.
Битрейт : 1123 Кбит/сек
Ширина : 640 пикселей
Высота : 480 пикселей
Соотношение сторон : 4:3
Частота кадров : 25,000 кадров/сек
Цветовое пространство : YUV
Субдискретизация насыщенности : 4:2:0
Битовая глубина : 8 бит
Тип развёртки : Прогрессивная
Метод сжатия : С потерями
Бит/(Пиксели*Кадры) : 0.146
Размер потока : 664 Мбайт (89%)
Библиотека кодирования : XviD 1.2.1 (UTC 2008-12-04)

Аудио
Идентификатор : 1
Формат : MPEG Audio
Версия формата : Version 1
Профиль формата : Layer 3
Идентификатор кодека : 55
Идентификатор кодека/Подсказка : MP3
Продолжительность : 1 ч. 22 м.
Вид битрейта : Постоянный
Битрейт : 128 Кбит/сек
Каналы : 2 канала
Частота : 48,0 КГц
Метод сжатия : С потерями
Размер потока : 75,6 Мбайт (10%)
Выравнивание : Соединение по промежуткам
Продолжительность промежутка : 40 мс. (1,00 видеокадр)
Время предзагрузки промежутка : 504 мс.
Библиотека кодирования : LAME3.99r
Настройки программы : -m s -V 4 -q 2 -lowpass 17 -b 128



Скачать Есть такой парень через торрент http://s010.radikal.ru/i311/1611/71/f906c8d1c844.png Скачать, смотреть онлайн Есть такой парень бесплантно в хорошем качестве Описание:Экранизация романа А.Андреева "Широкое течение".Убедившись в том, что любимая девушка увлечена другим, молодой рабочий Антон ... 10 10 1
Info! Золотая раздача, скачанное не засчитывается.
Торрент: Зарегистрирован [2016-11-22 08:52] · скачан: 10 раз
Статус: √ проверено
Размер: 745 MB
Как cкачать? Как скачать Есть такой парень через торрент | UTorrent

% Раздел Тема Автор DL S | L
Кино СССР [ 1.09 GB ] Есть такой парень | | DVDRip-AVC от AVP Studio AVP Studio Скачать
1 | 0
Кино СССР [ 1.09 GB ] Есть такой парень | | DVDRip от AVP Studio AVP Studio Скачать
1 | 0

28-11-2019 20:33  

Отключить вcю реклaмy на сайте

    Дорогой пользователь! Огромная просьба, поблагодарите релизера, оцените раздачу и оставьте свои комментарий, если Вы скачали Есть такой парень через торрент бесплатно!!
    Комментировать посты могут только пользователи прошедшие не сложную регистрацию
    Показать сообщения:    


    Есть такой парень через торрент
    Скачать бесплатно Есть такой парень
    Есть такой парень скачать торрент
    Есть такой парень смотреть онлайн
    Cкачать фильм Есть такой парень бесплатно
    Есть такой парень скачать торрент в хорошем качестве
    Есть такой парень смотреть онлайн бесплатно в хорошем качестве
    Вы не можете начинать темы
    Вы не можете отвечать на сообщения
    Вы не можете редактировать свои сообщения
    Вы не можете удалять свои сообщения
    Вы не можете голосовать в опросах
    Вы не можете прикреплять файлы к сообщениям
    Вы можете скачивать файлы