Лицензия

MVO

1

1 сезон

Лицензия

Лицензия

13

MVO

1 сезон

Deluxe Edition

pack

Рекомендуем

30

Repack

ВАЖНО

ВАЖНО

Ghostwire

RePack

jed

RePack

fifa19

RePack

RDR2

RePack

NEED FOR SPEED™ PAYBACK

RePack

Кинопоиск HD

 Острые козырьки 6 сезон

6 сезон

FAR CRY 6

RePack

Лицензия

MVO

1

1 сезон

1 сезон

Лицензия

  

Девочка и крокодил (Иосиф Гиндин, Исаак Менакер) [1956, СССР, комедия, семейный, SATRip от AVP Studio]

Девочка и крокодил через торрент piratbit.org

Размер: 742 MB | Добавлен: 5 лет 10 мес. назад | Торрент скачан:15 раз
Смотреть онлайн Девочка и крокодил | Скачать   

24-11-2016 09:54 Девочка и крокодил Скачать торрент  

Девочка и крокодил
Страна: СССР
Производство: Ленфильм

Жанр: комедия, семейный
Год выпуска: 1956
Продолжительность: 01:03:53

Перевод: Не требуется
Cубтитры: нет
Оригинальная аудиодорожка: русский

Режиссер: Иосиф Гиндин, Исаак Менакер

В ролях:
Елена Грановская, Евгений Тетерин, Наталья Селезнёва, Наталья Забавная, Зоя Фёдорова, Светлана Мазовецкая, Людмила Макарова, Леня Львов, Ричард Лойко...
Полный список актёров

Описание:
Забавная история о юном любителе животных пионере Мите, который временно оставил своих питомцев на попечение маленькой девочки Кате. Она тоже любила животных, но совсем не умела с ними обращаться, и они все от нее разбежались.

Источник: DVB
Качество видео: SATRip
Формат видео: AVI

Видео: 688x512 (4:3), 25 fps, XviD ~ 1422 kbps avg, 0.161 bit/pixel
Аудио: 48 kHz, Dolby Digital AC3 2.0, 192 kbps

Раздача от:
Общее
Полное имя : Devochka.i.krokodil.1956.SATRip_[New-team]_by_AVP_Studio.avi
Формат : AVI
Формат/Информация : Audio Video Interleave
Размер файла : 742 Мбайт
Продолжительность : 1 ч. 3 м.
Общий поток : 1623 Кбит/сек
Программа кодирования : VirtualDubMod 1.5.10.3 | www.virtualdub-fr.org || (build 2550/release)
Библиотека кодирования : VirtualDubMod build 2550/release

Видео
Идентификатор : 0
Формат : MPEG-4 Visual
Профиль формата : Advanced Simple@L5
Параметр BVOP формата : 1
Параметр QPel формата : Нет
Параметр GMC формата : Без точки перехода
Параметр матрицы формата : Выборочная
Идентификатор кодека : XVID
Идентификатор кодека/Подсказка : XviD
Продолжительность : 1 ч. 3 м.
Битрейт : 1422 Кбит/сек
Ширина : 688 пикселей
Высота : 512 пикселей
Соотношение сторон : 4:3
Частота кадров : 25,000 кадров/сек
Цветовое пространство : YUV
Субдискретизация насыщенности : 4:2:0
Битовая глубина : 8 бит
Тип развёртки : Прогрессивная
Метод сжатия : С потерями
Бит/(Пиксели*Кадры) : 0.161
Размер потока : 650 Мбайт (88%)
Библиотека кодирования : XviD 1.2.1 (UTC 2008-12-04)

Аудио
Идентификатор : 1
Формат : AC-3
Формат/Информация : Audio Coding 3
Расширение режима : CM (complete main)
Параметр Endianness формата : Big
Идентификатор кодека : 2000
Продолжительность : 1 ч. 3 м.
Вид битрейта : Постоянный
Битрейт : 192 Кбит/сек
Каналы : 2 канала
Расположение каналов : Front: L R
Частота : 48,0 КГц
Частота кадров : 31,250 кадров/сек (1536 spf)
Битовая глубина : 16 бит
Метод сжатия : С потерями
Размер потока : 87,7 Мбайт (12%)
Выравнивание : Разделение по промежуткам
Продолжительность промежутка : 40 мс. (1,00 видеокадр)
Время предзагрузки промежутка : 500 мс



Скачать Девочка и крокодил через торрент http://s012.radikal.ru/i320/1611/b1/53db34fa85b9.png Скачать, смотреть онлайн Девочка и крокодил бесплантно в хорошем качестве Описание:Забавная история о юном любителе животных пионере Мите, который временно оставил своих питомцев на попечение маленькой девочки ... 5 10 1
Info! Золотая раздача, скачанное не засчитывается.
Торрент: Зарегистрирован [2016-11-24 09:54] · скачан: 15 раз
Статус: √ проверено
Размер: 742 MB
Как cкачать? Как скачать Девочка и крокодил через торрент | UTorrent

% Раздел Тема Автор DL S | L
Кино СССР [ 745 MB ] Девочка и крокодил | | SATRip-AVC от AVP Studio AVP Studio Скачать
1 | 0
Детские отечественные фильмы [ 1.22 GB ] Девочка и крокодил | | SATRip-AVC smaster Скачать
1 | 0

28-11-2019 20:33  

Отключить вcю реклaмy на сайте

    Дорогой пользователь! Огромная просьба, поблагодарите релизера, оцените раздачу и оставьте свои комментарий, если Вы скачали Девочка и крокодил через торрент бесплатно!!
    Комментировать посты могут только пользователи прошедшие не сложную регистрацию
    Показать сообщения:    


    Девочка и крокодил через торрент
    Скачать бесплатно Девочка и крокодил
    Девочка и крокодил скачать торрент
    Девочка и крокодил смотреть онлайн
    Cкачать фильм Девочка и крокодил бесплатно
    Девочка и крокодил скачать торрент в хорошем качестве
    Девочка и крокодил смотреть онлайн бесплатно в хорошем качестве
    Вы не можете начинать темы
    Вы не можете отвечать на сообщения
    Вы не можете редактировать свои сообщения
    Вы не можете удалять свои сообщения
    Вы не можете голосовать в опросах
    Вы не можете прикреплять файлы к сообщениям
    Вы можете скачивать файлы