1 сезон

3 сезон

iTunes

1

iTunes

DUB Netflix

iTunes

13

1 сезон

RePack

30

Deluxe

pack

Легкие деньги

ВАЖНО

ИГРА 18+

pack

RePack

MK11

RePack

jed

RePack

fifa19

RePack

RDR2

RePack

NEED FOR SPEED™ PAYBACK

4 сезон

9 сезон

Бесстыжие 9 сезон

Все сериалы

все сериалы на PB.wtf

RePack

FAR CRY 5

Anonymous, добрый вечер, мы не успеваем до 1 числа собрать деньги на оплату серверов, помогите нам пожалуйста в это трудное время. В качестве благодарности мы отключим Вам всю рекламу на сайте (укажите свой ник в строку Ваше имя)!

×
  
Magnet ссылка

Парни со стволами / War Dogs (Тодд Филлипс) [2016 г., драма, комедия, криминал, военный, HDRip, Дубляж "BD CEE"] piratbit.org

Парни со стволами через торрент piratbit.org

Размер: 2.04 GB | Добавлен: 4 года 6 мес. назад | Торрент скачан:504 раза
Скачать  

24-11-2016 18:17 Парни со стволами Скачать торрент  

Парни со стволами / War Dogs
Год выпуска: 2016
Страна: США / Green Hat Films, Joint Effort, Mark Gordon Company, The
Жанр: драма, комедия, криминал, военный
Продолжительность: 01:54:12
Перевод: Дубляж (BD CEE)

Режиссер: Тодд Филлипс

rating

В ролях: Майлз Теллер, Джона Хилл, Ана де Армас, Кевин Поллак, Брэдли Купер, Джейби Бланк, Шон Тоуб, Патрик Ст. Эсприт, Андрей Финти, Эдди Джемисон

Описание: Реальная история о приятелях-планокурах из Майами, умудрившихся выбить в Пентагоне контракт на 300 миллионов долларов на поставку оружия.

Качество: HDRip
Формат: AVI
Видео кодек: XviD
Аудио кодек: AC3
Видео: 720x304 (2.37:1), 23.976 fps, XviD build 50 ~2097 kbps avg, 0.40 bit/pixel
Аудио: 48 kHz, AC3 Dolby Digital, 3/2 (L,C,R,l,r) + LFE ch, ~448 kbps

Общее
Полное имя : F:\ФИЛЬМЫ\Парни со стволами.2016.D.HDRip.avi
Формат : AVI
Формат/Информация : Audio Video Interleave
Профиль формата : OpenDML
Размер файла : 2,04 Гбайт
Продолжительность : 1 ч. 54 м.
Общий поток : 2553 Кбит/сек
Программа кодирования : VirtualDubMod 1.5.10.3 | www.virtualdub-fr.org || (build 2550/release)
Библиотека кодирования : VirtualDubMod build 2550/release

Видео
Идентификатор : 0
Формат : MPEG-4 Visual
Профиль формата : Advanced Simple@L5
Параметр BVOP формата : 1
Параметр QPel формата : Нет
Параметр GMC формата : Без точки перехода
Параметр матрицы формата : Default (MPEG)
Идентификатор кодека : XVID
Идентификатор кодека/Подсказка : XviD
Продолжительность : 1 ч. 54 м.
Битрейт : 2093 Кбит/сек
Ширина : 720 пикселей
Высота : 304 пикселя
Соотношение сторон : 2,35:1
Частота кадров : 23,976 (24000/1001) кадра/сек
Частота кадров в оригинале : 23,976 (23976/1000) кадра/сек
Цветовое пространство : YUV
Субдискретизация насыщенности : 4:2:0
Битовая глубина : 8 бит
Тип развёртки : Прогрессивная
Метод сжатия : С потерями
Бит/(Пиксели*Кадры) : 0.399
Размер потока : 1,67 Гбайт (82%)
Библиотека кодирования : XviD 1.2.1 (UTC 2008-12-04)

Аудио
Идентификатор : 1
Формат : AC-3
Формат/Информация : Audio Coding 3
Расширение режима : CM (complete main)
Параметр Endianness формата : Big
Идентификатор кодека : 2000
Продолжительность : 1 ч. 54 м.
Вид битрейта : Постоянный
Битрейт : 448 Кбит/сек
Каналы : 6 каналов
Расположение каналов : Front: L C R, Side: L R, LFE
Частота : 48,0 КГц
Частота кадров : 31,250 кадров/сек (1536 spf)
Битовая глубина : 16 бит
Метод сжатия : С потерями
Размер потока : 366 Мбайт (18%)
Выравнивание : Разделение по промежуткам
Продолжительность промежутка : 42 мс. (1,00 видеокадр)
Время предзагрузки промежутка : 500 мс.

piratbit.org



Скачать Парни со стволами через торрент https://pic.kartinco.top/images/11/o9tin.jpg Скачать фильм Парни со стволами через торрент бесплантно в хорошем качестве Описание: Реальная история о приятелях-планокурах из Майами, умудрившихся выбить в Пентагоне контракт на 300 миллионов долларов на поставку ... 8.4 10 11
Торрент: Зарегистрирован [2016-11-24 18:17] · скачан: 504 раз
Статус: √ проверено
Размер: 2.04 GB
Как cкачать? Как скачать Парни со стволами через торрент | UTorrent

% Раздел Тема Автор DL S | L
Фильмы [HD 720p, 1080p] (Хороший звук DUB, MVO) [ 5.75 GB ] Парни со стволами / War Dogs [2016 военный BDRip-HEVC 1080p ] DUB [ Blu-Ray CEE] bober100 Скачать
2 | 0
Ultra HD (UHD: 2K, 4K, 8K) — видео сверхвысокой чёткости [ 55.31 GB ] Парни со стволами / War Dogs [2016 военный UHD BDRemux 2160p] DUB [] + 2xAVO sheker187 Скачать
1 | 0
Ultra HD (UHD: 2K, 4K, 8K) — видео сверхвысокой чёткости [ 52.44 GB ] Парни со стволами / War Dogs [2016 военный UHD BDRemux 2160p] [Д. Есарев] AVO+DUB [ Blu-Ray CEE] bober100 Скачать
1 | 0
Фильмы (WEB-DL 720p, 1080p) [ 4.46 GB ] Парни со стволами / War Dogs [2016 WEB-DLRip 720p] Dub AVO - [Open Matte] - ExKinoRay Enigma2010 Скачать
1 | 1
Фильмы (Blu-ray, BD-Remux, HDDVD) [ 34.27 GB ] Парни со стволами / War Dogs [2016 военный Blu-ray CEE 1080p] DUB [] bober100 Скачать
1 | 0
Фильмы (Blu-ray, BD-Remux, HDDVD) [ 26.55 GB ] Парни со стволами / War Dogs [2016 военный Blu-Ray Remux 1080p] + 2x[Sub] killermax2013 Скачать
1 | 0
Фильмы (Blu-ray, BD-Remux, HDDVD) [ 30.12 GB ] Парни со стволами / War Dogs [2016 военный BD Remux BD CEE] Бумер Скачать
1 | 0

28-11-2019 20:33  

Отключить всю рекламу на сайте

28-11-2016 19:45 Парни со стволами Скачать торрент  

Фильм отличный!piratbit.org



22-12-2016 17:26 Парни со стволами Скачать торрент  

rusman88 писал(а):

Фильм отличный!

подтверждаю!piratbit.org



    Дорогой пользователь! Огромная просьба, поблагодарите релизера, оцените раздачу и оставьте свои комментарий, если Вы скачали Парни со стволами через торрент бесплатно! Внесите свою лепту в развитие PiratBit!
    Комментировать посты могут только пользователи прошедшие не сложную регистрацию
    Показать сообщения:    

    Парни со стволами через торрент
    Скачать бесплатно Парни со стволами
    Парни со стволами скачать торрент
    Парни со стволами смотреть онлайн
    Cкачать фильм Парни со стволами бесплатно
    Парни со стволами скачать торрент в хорошем качестве
    Парни со стволами смотреть онлайн бесплатно в хорошем качестве


    Вы не можете начинать темы
    Вы не можете отвечать на сообщения
    Вы не можете редактировать свои сообщения
    Вы не можете удалять свои сообщения
    Вы не можете голосовать в опросах
    Вы не можете прикреплять файлы к сообщениям
    Вы можете скачивать файлы