1 сезон

1 сезон

iTunes

1

КиноПоиск HD

Кинопоиск HD

iTunes

13

1 сезон

RePack

30

Deluxe

ВАЖНО

ИГРА 18+

pack

RePack

MK11
pack

Легкие деньги

RePack

jed

RePack

fifa19

RePack

RDR2

RePack

NEED FOR SPEED™ PAYBACK

4 сезон

9 сезон

Бесстыжие 9 сезон

Все сериалы

все сериалы на PB.wtf

RePack

FAR CRY 5
  
Magnet ссылка

Шпион по соседству / The Spy Next Door (Брайан Левант) [2010, боевик, комедия, семейный, BDRip 1080p] Дубляж piratbit.org

Шпион по соседству через торрент piratbit.org

Размер: 10.51 GB | Добавлен: 4 года 1 мес. назад | Торрент скачан:53 раза
Скачать  

10-09-2010 15:13 Шпион по соседству Скачать торрент  

Шпион по соседству / The Spy Next Door

Год выпуска: 2010
Страна: США
Жанр: боевик, комедия, семейный

Продолжительность: 01:34:18
Перевод: Дубляж
Режиссер: Брайан Левант
В ролях:

Джеки Чан (Bob Ho), Эмбер Валлетта (Gillian), Мадлен Кэрролл (Farren), Уилл Шэдли (Ian), Алина Фоли (Nora), Магнус Шевинг (Anton Poldark), Билли Рэй Сайрус (Colton James), Джордж Лопес (Glaze), Кэтрин Бёхер (Creel), Миа Сталлард (Cute Girl), Маверик МакУильямс (Chad), Куинн Мэйсон (Carl)
Описание:
Агент Боб Хо обезвреживал террористов, ниспровергал диктаторов и крушил целые империи зла, но теперь его ждет самое сложное задание за всю карьеру - на один вечер он должен стать нянькой. Здесь он снова использует профессиональную подготовку и уникальные навыки, однако скоро Боба ждут большие неприятности.
Рейтинг:

MPAA: PG - Рекомендуется присутствие родителей
Качество: BDRip 1080p
Формат: MKV
Видео: AVC, 1920x1080 (16:9), 12913 kbps, 23,976 fps, 0,260 bpp
Аудио №1: русский / DTS / 5.1 / 48 kHz / 1509 kbps / 24 bit |Дубляж|
Аудио №2: английский / DTS / 5.1 / 48 kHz / 1509 kbps / 24 bit
Релиз от:
General
Unique ID : 238577858018636210230450180215901296851 (0xB37C6C90AD24C410B003A6673CCC98D3)
Complete name : E:\Shpion.po.sosedstvu.2010.x264.BDRip.1080p.Kinozal.TV-HD.mkv
Format : Matroska
Format version : Version 2
File size : 10.5 GiB
Duration : 1 h 34 min
Overall bit rate : 16.0 Mb/s
Encoded date : UTC 2010-05-12 23:03:55
Writing application : mkvmerge v3.3.0 ('Language') built on Mar 24 2010 14:59:24
Writing library : libebml v0.8.0 + libmatroska v0.9.0

Video
ID : 1
Format : AVC
Format/Info : Advanced Video Codec
Format profile : High@L4.1
Format settings, CABAC : Yes
Format settings, ReFrames : 4 frames
Codec ID : V_MPEG4/ISO/AVC
Duration : 1 h 34 min
Bit rate : 12.9 Mb/s
Width : 1 920 pixels
Height : 1 080 pixels
Display aspect ratio : 16:9
Frame rate mode : Constant
Frame rate : 23.976 FPS
Color space : YUV
Chroma subsampling : 4:2:0
Bit depth : 8 bits
Scan type : Progressive
Bits/(Pixel*Frame) : 0.260
Stream size : 8.31 GiB (79%)
Title : Shpion po sosedstvu (2010) [helia@CHD]
Writing library : x264 core 88 r1471 1144615
Encoding settings : cabac=1 / ref=4 / deblock=1:-3:-3 / analyse=0x3:0x113 / me=umh / subme=10 / psy=1 / psy_rd=1.05:0.10 / mixed_ref=1 / me_range=48 / chroma_me=1 / trellis=2 / 8x8dct=1 / cqm=2 / deadzone=21,11 / fast_pskip=0 / chroma_qp_offset=-2 / threads=12 / sliced_threads=0 / nr=0 / decimate=1 / mbaff=0 / constrained_intra=0 / bframes=3 / b_pyramid=2 / b_adapt=2 / b_bias=0 / direct=3 / wpredb=1 / wpredp=2 / keyint=250 / keyint_min=25 / scenecut=40 / intra_refresh=0 / rc_lookahead=50 / rc=2pass / mbtree=1 / bitrate=12913 / ratetol=2.0 / qcomp=0.70 / qpmin=10 / qpmax=51 / qpstep=4 / cplxblur=20.0 / qblur=0.5 / vbv_maxrate=50000 / vbv_bufsize=50000 / ip_ratio=1.40 / aq=1:1.00
Language : English
Default : Yes
Forced : Yes

Audio #1
ID : 2
Format : DTS
Format/Info : Digital Theater Systems
Mode : 16
Format settings, Endianness : Big
Codec ID : A_DTS
Duration : 1 h 34 min
Bit rate mode : Constant
Bit rate : 1 510 kb/s
Channel(s) : 6 channels
Channel positions : Front: L C R, Side: L R, LFE
Sampling rate : 48.0 kHz
Frame rate : 93.750 FPS (512 spf)
Bit depth : 24 bits
Compression mode : Lossy
Stream size : 1 018 MiB (9%)
Title : Dubljazh
Language : Russian
Default : Yes
Forced : Yes

Audio #2
ID : 3
Format : DTS
Format/Info : Digital Theater Systems
Mode : 16
Format settings, Endianness : Big
Codec ID : A_DTS
Duration : 1 h 34 min
Bit rate mode : Constant
Bit rate : 1 509 kb/s
Channel(s) : 6 channels
Channel positions : Front: L C R, Side: L R, LFE
Sampling rate : 48.0 kHz
Frame rate : 93.750 FPS (512 spf)
Bit depth : 24 bits
Compression mode : Lossy
Stream size : 1 018 MiB (9%)
Title : Original
Language : English
Default : No
Forced : No




piratbit.org



Скачать Шпион по соседству через торрент http://i6.imageban.ru/out/2017/03/10/7b1201d41bc81e3b6b792b9410021268.jpg Скачать фильм Шпион по соседству через торрент бесплантно в хорошем качестве Описание: Агент Боб Хо обезвреживал террористов, ниспровергал диктаторов и крушил целые империи зла, но теперь его ждет самое сложное ... 10 10 5
Info! Золотая раздача, скачанное не засчитывается.
Торрент: Зарегистрирован [2017-03-10 17:26] · скачан: 53 раз
Статус: √ проверено
Размер: 10.51 GB
Как cкачать? Как скачать Шпион по соседству через торрент | UTorrent

28-11-2019 20:33  

Отключить всю рекламу на сайте

    Дорогой пользователь! Огромная просьба, поблагодарите релизера, оцените раздачу и оставьте свои комментарий, если Вы скачали Шпион по соседству через торрент бесплатно! Внесите свою лепту в развитие PiratBit!
    Комментировать посты могут только пользователи прошедшие не сложную регистрацию
    Показать сообщения:    

    Шпион по соседству через торрент
    Скачать бесплатно Шпион по соседству
    Шпион по соседству скачать торрент
    Шпион по соседству смотреть онлайн
    Cкачать фильм Шпион по соседству бесплатно
    Шпион по соседству скачать торрент в хорошем качестве
    Шпион по соседству смотреть онлайн бесплатно в хорошем качестве


    Вы не можете начинать темы
    Вы не можете отвечать на сообщения
    Вы не можете редактировать свои сообщения
    Вы не можете удалять свои сообщения
    Вы не можете голосовать в опросах
    Вы не можете прикреплять файлы к сообщениям
    Вы можете скачивать файлы