Лицензия

MVO

1

1 сезон

Лицензия

Лицензия

13

MVO

1 сезон

Deluxe Edition

pack

Рекомендуем

30

Repack

ВАЖНО

ВАЖНО

Ghostwire

RePack

jed

RePack

fifa19

RePack

RDR2

RePack

NEED FOR SPEED™ PAYBACK

RePack

Кинопоиск HD

 Острые козырьки 6 сезон

6 сезон

FAR CRY 6

RePack

Лицензия

MVO

1

1 сезон

1 сезон

Лицензия

  

Долина синих скал (Николай Красий) [1956, СССР, драма, SATRip-AVC от AVP Studio]

Долина синих скал через торрент piratbit.org

Размер: 1.09 GB | Добавлен: 5 лет 9 мес. назад | Торрент скачан:9 раз
Смотреть онлайн Долина синих скал | Скачать   

01-12-2016 09:34 Долина синих скал Скачать торрент  

Долина синих скал
Страна: СССР
Производство: К/ст им. Довженко

Жанр: драма
Год выпуска: 1956
Продолжительность: 01:18:26

Перевод: Не требуется
Cубтитры: нет
Оригинальная аудиодорожка: русский

Режиссер: Николай Красий

В ролях:
Анатолий Вербицкий, Нелли Подгорная, Николай Пишванов, Павел Усовниченко, Фёдор Радчук, Стефания Пиль, Николай Блащук, Леонид Жуковский, Л. Журавлева, Георгий Фарманянц...
Полный список актёров

Описание:
Киноповесть.
О молодых геологах, ведущих разведку нефтяных месторождений.
Василий Рубан, окончивший геологический факультет, отправляется на работу в Закарпатье. Длительные поиски нефти в Карпатских горах не дают результата. Пожилой инженер уверяет Василия, что нефти здесь нет, но молодой геолог не сдается...

Источник: DVB
Качество видео: SATRip-AVC
Формат видео: MKV

Видео: 704->760x570 (4:3), 25 fps, H264 ~ 1790 kbps avg, 0.178 bit/pixel
Аудио: 48 kHz, Dolby Digital AC3 2.0, 192 kbps

Раздача от:
Общее
Полное имя : Dolina.Sinih.skal.1956.SATRip-AVC_[New-team]_by_AVP_Studio.mkv
Формат : Matroska
Версия формата : Version 4 / Version 2
Размер файла : 1,09 Гбайт
Продолжительность : 1 ч. 18 м.
Общий поток : 1984 Кбит/сек
Дата кодирования : UTC 2016-12-01 09:09:06
Программа кодирования : mkvmerge v9.5.0 ('Quiet Fire') 64bit
Библиотека кодирования : libebml v1.3.4 + libmatroska v1.4.5

Видео
Идентификатор : 1
Формат : AVC
Формат/Информация : Advanced Video Codec
Профиль формата : High@L4.1
Параметр CABAC формата : Да
Параметр ReFrames формата : 10 кадров
Идентификатор кодека : V_MPEG4/ISO/AVC
Продолжительность : 1 ч. 18 м.
Битрейт : 1790 Кбит/сек
Ширина : 704 пикселя
Высота : 570 пикселей
Соотношение сторон : 4:3
Режим частоты кадров : Постоянный
Частота кадров : 25,000 кадров/сек
Цветовое пространство : YUV
Субдискретизация насыщенности : 4:2:0
Битовая глубина : 8 бит
Тип развёртки : Прогрессивная
Бит/(Пиксели*Кадры) : 0.178
Размер потока : 1005 Мбайт (90%)
Default : Да
Forced : Нет

Аудио
Идентификатор : 2
Формат : AC-3
Формат/Информация : Audio Coding 3
Расширение режима : CM (complete main)
Параметр Endianness формата : Big
Идентификатор кодека : A_AC3
Продолжительность : 1 ч. 18 м.
Вид битрейта : Постоянный
Битрейт : 192 Кбит/сек
Каналы : 2 канала
Расположение каналов : Front: L R
Частота : 48,0 КГц
Частота кадров : 31,250 кадров/сек (1536 spf)
Битовая глубина : 16 бит
Метод сжатия : С потерями
Задержка видео : 16 мс.
Размер потока : 108 Мбайт (10%)
Default : Да
Forced : Нет



Скачать Долина синих скал через торрент http://s010.radikal.ru/i313/1612/ac/1d0c3f80647a.png Скачать, смотреть онлайн Долина синих скал бесплантно в хорошем качестве Описание:Киноповесть.О молодых геологах, ведущих разведку нефтяных месторождений.Василий Рубан, окончивший геологический факультет, ... 5 10 1
Торрент: Зарегистрирован [2016-12-01 09:34] · скачан: 9 раз
Статус: √ проверено
Размер: 1.09 GB
Как cкачать? Как скачать Долина синих скал через торрент | UTorrent

% Раздел Тема Автор DL S | L
Кино СССР [ 745 MB ] Долина синих скал | | SATRip от AVP Studio AVP Studio Скачать
1 | 0
Кино СССР [ 1.09 GB ] Долина синих скал | | SATRip от AVP Studio AVP Studio Скачать
1 | 0

28-11-2019 20:33  

Отключить вcю реклaмy на сайте

    Дорогой пользователь! Огромная просьба, поблагодарите релизера, оцените раздачу и оставьте свои комментарий, если Вы скачали Долина синих скал через торрент бесплатно!!
    Комментировать посты могут только пользователи прошедшие не сложную регистрацию
    Показать сообщения:    


    Долина синих скал через торрент
    Скачать бесплатно Долина синих скал
    Долина синих скал скачать торрент
    Долина синих скал смотреть онлайн
    Cкачать фильм Долина синих скал бесплатно
    Долина синих скал скачать торрент в хорошем качестве
    Долина синих скал смотреть онлайн бесплатно в хорошем качестве
    Вы не можете начинать темы
    Вы не можете отвечать на сообщения
    Вы не можете редактировать свои сообщения
    Вы не можете удалять свои сообщения
    Вы не можете голосовать в опросах
    Вы не можете прикреплять файлы к сообщениям
    Вы можете скачивать файлы