Лицензия

MVO

1

1 сезон

Лицензия

Лицензия

13

MVO

1 сезон

Deluxe Edition

pack

Рекомендуем

30

Repack

ВАЖНО

ВАЖНО

Ghostwire

RePack

jed

RePack

fifa19

RePack

RDR2

RePack

NEED FOR SPEED™ PAYBACK

RePack

Кинопоиск HD

 Острые козырьки 6 сезон

6 сезон

FAR CRY 6

RePack

Лицензия

MVO

1

1 сезон

1 сезон

Лицензия

  

Капитан «Старой черепахи» (Генрих Габай, Всеволод Воронин) [1956, СССР, приключения, SATRip от AVP Studio]

Капитан «Старой черепахи» через торрент piratbit.org

Размер: 744 MB | Добавлен: 5 лет 9 мес. назад | Торрент скачан:11 раз
Смотреть онлайн Капитан «Старой черепахи» | Скачать   

07-12-2016 08:41 Капитан «Старой черепахи» Скачать торрент  

Капитан «Старой черепахи»
Страна: СССР
Производство: приключения

Жанр: короткометражка, драма
Год выпуска: 1956
Продолжительность: 01:08:01

Перевод: Не требуется
Cубтитры: нет
Оригинальная аудиодорожка: русский

Режиссер: Генрих Габай, Всеволод Воронин

В ролях:
Юрий Саранцев, Анатолий Игнатьев, Наталья Фатеева, Евгений Ташков, Николай Бармин, Владимир Балашов, Сергей Юртайкин, Леонид Чиниджанц, А. Козлов, Георгий Домбровский, Юрий Савельев, В. Лавров...
Полный список актёров

Описание:
О борьбе с контрреволюционным подпольем на юге страны в первые годы Советской власти.
По мотивам одноименной повести Л.Линькова.

Источник: DVB
Качество видео: SATRip
Формат видео: AVI

Видео: 704x528 (4:3), 25 fps, XviD ~ 1392 kbps avg, 0.150 bit/pixel
Аудио: 48 kHz, MP3 2.0, 128 kbps

Раздача от:
Общее
Полное имя : Kapitan.«Staroy.cherepahi».1956.SATRip_[New-team]_by_AVP_Studio.avi
Формат : AVI
Формат/Информация : Audio Video Interleave
Размер файла : 744 Мбайт
Продолжительность : 1 ч. 8 м.
Общий поток : 1530 Кбит/сек
Программа кодирования : VirtualDubMod 1.5.10.3 | www.virtualdub-fr.org || (build 2550/release)
Библиотека кодирования : VirtualDubMod build 2550/release

Видео
Идентификатор : 0
Формат : MPEG-4 Visual
Профиль формата : Advanced Simple@L5
Параметр BVOP формата : 1
Параметр QPel формата : Нет
Параметр GMC формата : Без точки перехода
Параметр матрицы формата : Выборочная
Идентификатор кодека : XVID
Идентификатор кодека/Подсказка : XviD
Продолжительность : 1 ч. 8 м.
Битрейт : 1392 Кбит/сек
Ширина : 704 пикселя
Высота : 528 пикселей
Соотношение сторон : 4:3
Частота кадров : 25,000 кадров/сек
Цветовое пространство : YUV
Субдискретизация насыщенности : 4:2:0
Битовая глубина : 8 бит
Тип развёртки : Прогрессивная
Метод сжатия : С потерями
Бит/(Пиксели*Кадры) : 0.150
Размер потока : 677 Мбайт (91%)
Библиотека кодирования : XviD 1.2.1 (UTC 2008-12-04)

Аудио
Идентификатор : 1
Формат : MPEG Audio
Версия формата : Version 1
Профиль формата : Layer 3
Идентификатор кодека : 55
Идентификатор кодека/Подсказка : MP3
Продолжительность : 1 ч. 8 м.
Вид битрейта : Постоянный
Битрейт : 128 Кбит/сек
Каналы : 2 канала
Частота : 48,0 КГц
Метод сжатия : С потерями
Размер потока : 62,3 Мбайт (8%)
Выравнивание : Соединение по промежуткам
Продолжительность промежутка : 40 мс. (1,00 видеокадр)
Время предзагрузки промежутка : 504 мс.
Библиотека кодирования : LAME3.99r
Настройки программы : -m s -V 4 -q 2 -lowpass 17 -b 128



Скачать Капитан «Старой черепахи» через торрент http://s019.radikal.ru/i637/1612/a9/fd21886ddcdd.png Скачать, смотреть онлайн Капитан «Старой черепахи» бесплантно в хорошем качестве Описание:О борьбе с контрреволюционным подпольем на юге страны в первые годы Советской власти.По мотивам одноименной повести Л.Линькова. ... 10 10 1
Info! Золотая раздача, скачанное не засчитывается.
Торрент: Зарегистрирован [2016-12-07 08:41] · скачан: 11 раз
Статус: √ проверено
Размер: 744 MB
Как cкачать? Как скачать Капитан «Старой черепахи» через торрент | UTorrent

% Раздел Тема Автор DL S | L
Кино СССР [ 1.09 GB ] Капитан «Старой черепахи» | | SATRip-AVC от AVP Studio AVP Studio Скачать
1 | 0

28-11-2019 20:33  

Отключить вcю реклaмy на сайте

    Дорогой пользователь! Огромная просьба, поблагодарите релизера, оцените раздачу и оставьте свои комментарий, если Вы скачали Капитан «Старой черепахи» через торрент бесплатно!!
    Комментировать посты могут только пользователи прошедшие не сложную регистрацию
    Показать сообщения:    


    Капитан «Старой черепахи» через торрент
    Скачать бесплатно Капитан «Старой черепахи»
    Капитан «Старой черепахи» скачать торрент
    Капитан «Старой черепахи» смотреть онлайн
    Cкачать фильм Капитан «Старой черепахи» бесплатно
    Капитан «Старой черепахи» скачать торрент в хорошем качестве
    Капитан «Старой черепахи» смотреть онлайн бесплатно в хорошем качестве
    Вы не можете начинать темы
    Вы не можете отвечать на сообщения
    Вы не можете редактировать свои сообщения
    Вы не можете удалять свои сообщения
    Вы не можете голосовать в опросах
    Вы не можете прикреплять файлы к сообщениям
    Вы можете скачивать файлы