Доктор Стрэндж

Лицензия

Добыча

Дубляж

Уэнсдэй

1 сезон

Тор

Дубляж

В эфире

Дубляж

Там, где раки поют

MVO

Властелин колец

1 сезон

Deluxe

pack

Рекомендуем

30

Пиратка

ВАЖНО

ВАЖНО

Ghostwire

Пиратка

jed

RePack

nioh2

RePack

RDR2

RePack

NEED FOR SPEED™ PAYBACK

RePack

скачать торрент

Кинопоиск HD

Острые козырьки 6 сезон

6 сезон

FAR CRY 6

RePack

скачать торрент

Лицензия

скачать торрент

MVO

1

1 сезон

скачать торрент

1 сезон

скачать торрент

Лицензия

  

Небольшое ДТП / Fender Bender (Марк Павиа) [2016 г., ужасы, триллер, BDRip 720p] VO

Небольшое ДТП через торрент piratbit.org

Размер: 4.61 GB | Добавлен: 5 лет 11 мес. назад | Торрент скачан:82 раза
Смотреть онлайн | Скачать   

08-12-2016 05:32 Небольшое ДТП Скачать торрент  

Небольшое ДТП / Fender Bender
Год выпуска: 2016
Страна: США
Жанр: ужасы, триллер
Продолжительность: 01:30:54
Перевод: Любительский одноголосый Xixidok

Режиссер: Марк Павиа

rating

В ролях: Кэссиди Фриман, Макензи Вега, Лора Каннингэм, Билл Сейдж, Дре Дэвис, Стивен Майкл Квезада, Гас Кригер Келси, Леос Монтойя, Джошуа Бантинг, Харрисон Сим

Описание: Страшный и причудливый серийный убийца, наматывает бесконечные мили дорог на старом ржавом автомобиле в поисках своей следующей ничего не подозревающей жертвы.

Доп. информация: Присутствует небольшая звуковая реклама пельменей и онлайн кинотеатра.

Качество: BDRip 720p [SADPANDA]
Формат: MKV
Видео кодек: x264
Аудио кодек: AC3, DTS
Видео: MPEG-4 AVC, 5362 Кбит/с, 1280x536, 23.976 кадр/с
Аудио#1: AC3, 6 ch, 384 Кбит/с, 48 kHz | Русский
Аудио#2: DTS, 6 ch, 1509 Кбит/с, 48 kHz | Aнглийский
Релиз от: Koenig
Общее
Уникальный идентификатор : 228814413028767087473731473711149830868 (0xAC240D8FD4F1092C92155139EAC352D4)
Полное имя : Fender.Bender.2016.BDRip.720p.mkv
Формат : Matroska
Версия формата : Version 4 / Version 2
Размер файла : 4,61 Гбайт
Продолжительность : 1 ч. 30 м.
Общий поток : 7253 Кбит/сек
Название фильма : Fender.Bender.2016-BDP
Дата кодирования : UTC 2016-12-07 18:55:02
Программа кодирования : mkvmerge v9.2.0 ('Photograph') 32bit
Библиотека кодирования : libebml v1.3.3 + libmatroska v1.4.4
Обложка : Yes
Attachments : cover.jpg

Видео
Идентификатор : 1
Формат : AVC
Формат/Информация : Advanced Video Codec
Профиль формата : High@L4.1
Параметр CABAC формата : Да
Параметр ReFrames формата : 5 кадров
Идентификатор кодека : V_MPEG4/ISO/AVC
Продолжительность : 1 ч. 30 м.
Битрейт : 5362 Кбит/сек
Ширина : 1280 пикселей
Высота : 536 пикселей
Соотношение сторон : 2,40:1
Режим частоты кадров : Постоянный
Частота кадров : 23,976 (24000/1001) кадра/сек
Цветовое пространство : YUV
Субдискретизация насыщенности : 4:2:0
Битовая глубина : 8 бит
Тип развёртки : Прогрессивная
Бит/(Пиксели*Кадры) : 0.326
Размер потока : 3,40 Гбайт (74%)
Заголовок : Fender Bender
Библиотека кодирования : x264 core 148 r2721 72d53ab
Настройки программы : cabac=1 / ref=5 / deblock=1:-3:-3 / analyse=0x3:0x113 / me=umh / subme=8 / psy=1 / psy_rd=1.00:0.25 / mixed_ref=1 / me_range=24 / chroma_me=1 / trellis=1 / 8x8dct=1 / cqm=0 / deadzone=21,11 / fast_pskip=1 / chroma_qp_offset=-4 / threads=17 / lookahead_threads=2 / sliced_threads=0 / nr=0 / decimate=1 / interlaced=0 / bluray_compat=0 / constrained_intra=0 / bframes=3 / b_pyramid=2 / b_adapt=1 / b_bias=0 / direct=3 / weightb=1 / open_gop=0 / weightp=2 / keyint=240 / keyint_min=24 / scenecut=40 / intra_refresh=0 / rc_lookahead=50 / rc=2pass / mbtree=1 / bitrate=5362 / ratetol=1.0 / qcomp=0.60 / qpmin=0 / qpmax=69 / qpstep=4 / cplxblur=20.0 / qblur=0.5 / ip_ratio=1.40 / aq=1:0.75
Default : Да
Forced : Нет

Аудио #1
Идентификатор : 2
Формат : AC-3
Формат/Информация : Audio Coding 3
Расширение режима : CM (complete main)
Параметр Endianness формата : Big
Идентификатор кодека : A_AC3
Продолжительность : 1 ч. 30 м.
Вид битрейта : Постоянный
Битрейт : 384 Кбит/сек
Каналы : 6 каналов
Расположение каналов : Front: L C R, Side: L R, LFE
Частота : 48,0 КГц
Частота кадров : 31,250 кадров/сек (1536 spf)
Битовая глубина : 16 бит
Метод сжатия : С потерями
Задержка видео : 500 мс.
Размер потока : 250 Мбайт (5%)
Заголовок : Xixidoktor
Язык : Russian
Default : Да
Forced : Да

Аудио #2
Идентификатор : 3
Формат : DTS
Формат/Информация : Digital Theater Systems
Режим : 16
Параметр Endianness формата : Big
Идентификатор кодека : A_DTS
Продолжительность : 1 ч. 30 м.
Вид битрейта : Постоянный
Битрейт : 1509 Кбит/сек
Каналы : 6 каналов
Расположение каналов : Front: L C R, Side: L R, LFE
Частота : 48,0 КГц
Частота кадров : 93,750 кадра/сек (512 spf)
Битовая глубина : 24 бит
Метод сжатия : С потерями
Размер потока : 981 Мбайт (21%)
Язык : English
Default : Нет
Forced : Нет

Меню
00:00:00.000 : en:00:00:00.000
00:08:07.946 : en:00:08:07.946
00:13:44.490 : en:00:13:44.490
00:20:45.119 : en:00:20:45.119
00:26:10.861 : en:00:26:10.861
00:31:05.822 : en:00:31:05.822
00:39:40.253 : en:00:39:40.253
00:42:41.392 : en:00:42:41.392
00:49:19.540 : en:00:49:19.540
00:55:54.226 : en:00:55:54.226
01:06:18.391 : en:01:06:18.391
01:17:53.377 : en:01:17:53.377




Скачать Небольшое ДТП через торрент http://i83.fastpic.ru/big/2016/1208/8f/8ef237e4c9128093e1fc13859a3ddd8f.jpg Скачать, смотреть онлайн Небольшое ДТП бесплантно в хорошем качестве Описание: Страшный и причудливый серийный убийца, наматывает бесконечные мили дорог на старом ржавом автомобиле в поисках своей следующей ... 9.5 10 2
Торрент: Зарегистрирован [2016-12-08 05:32] · скачан: 82 раз
Статус: T временная
Размер: 4.61 GB
Как cкачать? Как скачать Небольшое ДТП через торрент | UTorrent

28-11-2019 20:33  


Отключить вcю реклaмy на сайте, в т.ч. и в плеере онлайн просмотра!

08-12-2016 08:21 Небольшое ДТП Скачать торрент  

Посмотреть что-ль ради рекламы пельменей... Это что то новенькое!



10-12-2016 09:19 Небольшое ДТП Скачать торрент  

ujin1986 писал(а):

Посмотреть что-ль ради рекламы пельменей... Это что то новенькое!

Не, не стОит, ждём рекламу прокладок и вот тогда насладимся.
Предвидится мне что трекер релизы в будущем ждёт судьба сегодняшних фильмов из зомбоящика - на час фильма 30 мин. рекламы всякого кала.

По фильму, можно было бы и глянуть но перевод и озвучка от Xixidok вымораживает хотя это единственный кто озвучивает кучу треша на который есть свои
любители.



    Дорогой пользователь! Огромная просьба, поблагодарите релизера, оцените раздачу и оставьте свои комментарий, если Вы скачали Небольшое ДТП через торрент бесплатно!!
    Комментировать посты могут только пользователи прошедшие не сложную регистрацию
    Показать сообщения:    


    Небольшое ДТП через торрент
    Скачать бесплатно Небольшое ДТП
    Небольшое ДТП скачать торрент
    Небольшое ДТП смотреть онлайн
    Cкачать фильм Небольшое ДТП бесплатно
    Небольшое ДТП скачать торрент в хорошем качестве
    Небольшое ДТП смотреть онлайн бесплатно в хорошем качестве
    Вы не можете начинать темы
    Вы не можете отвечать на сообщения
    Вы не можете редактировать свои сообщения
    Вы не можете удалять свои сообщения
    Вы не можете голосовать в опросах
    Вы не можете прикреплять файлы к сообщениям
    Вы можете скачивать файлы
    Небольшое ДТП / Fender Bender [2016 г., ужасы, триллер, BDRip 720p] VO смотреть онлайн, скачать торрент picoco.icu