Доктор Стрэндж

Лицензия

Добыча

Дубляж

Уэнсдэй

1 сезон

Тор

Дубляж

В эфире

Дубляж

Там, где раки поют

MVO

Властелин колец

1 сезон

Deluxe

pack

Рекомендуем

30

Пиратка

ВАЖНО

ВАЖНО

Ghostwire

Пиратка

jed

RePack

nioh2

RePack

RDR2

RePack

NEED FOR SPEED™ PAYBACK

RePack

скачать торрент

Кинопоиск HD

Острые козырьки 6 сезон

6 сезон

FAR CRY 6

RePack

скачать торрент

Лицензия

скачать торрент

MVO

1

1 сезон

скачать торрент

1 сезон

скачать торрент

Лицензия

  

Призрак Оперы / The Phantom of the Opera (Теренс Фишер) [1962, ужасы, триллер, драма, детектив, музыка, BDRip 720p ] VO

Призрак Оперы через торрент piratbit.org

Размер: 3.45 GB | Добавлен: 5 лет 11 мес. назад | Торрент скачан:1 раз
Смотреть онлайн | Скачать   

08-12-2016 08:36 Призрак Оперы Скачать торрент  

Название: Призрак Оперы
Оригинальное название: The Phantom of the Opera
Год выпуска: 1962
Страна: Великобритания
Жанр: ужасы, триллер, драма, детектив, музыка
Продолжительность: 01:24:12
Перевод: любительский одноголосый

Режиссёр: Теренс Фишер

В ролях: Херберт Лом, Хезер Сирс, Эдвард Де Соуза, Торли Уолтерс, Майкл Гоф, Харольд Гудвин, Мартин Миллер, Окин, Соня Кордо, Марни Мейтленд

Описание: Лондон, полный кэбов и газовых фонарей. Девяностые годы XIX века. Призрак в фильме — совершенно обычный, всю жизнь проживший благополучно, человек и очень милый благовидный профессор музыки по имени Питри. Он обезображен в результате злодейских происков владельца Оперы с композиторскими амбициями лорда д`Арси, а также кислотой и пламенем пожара в типографии, куда пришёл уничтожить тираж партитуры новой оперы, написанной им и нагло присвоенной лордом... Фильм по роману Гастона Леру.



Качество: BDRip 720p Сравнение с исходником
Формат: MKV
Видео: MPEG-4 AVC, 5484 Кбит/с, 1280x690, 23,976 кадра/с
Аудио 1: русский, AC3, 192 kbps, 2 ch, 48 kHz [любительский одноголосый, Oneinchnales]
Аудио 2: английский, AC3, 192 kbps, 2 ch, 48 kHz [оригинал]
Субтитры 1: русские
Субтитры 2: русские (песни)
Субтитры 3: английские
Имеются неименованные главы/чаптеры.
Общее
Уникальный идентификатор : 239483781636727410869378478449881995299 (0xB42AE60C487FB348B375C47AB20F5823)
Полное имя : D:\Video\Призрак оперы.1962.BDRip.720p by msltel.mkv
Формат : Matroska
Версия формата : Version 4 / Version 2
Размер файла : 3,45 Гбайт
Продолжительность : 1 ч. 24 м.
Общий поток : 5869 Кбит/сек
Название фильма : Rip by msltel
Дата кодирования : UTC 2016-12-07 09:26:22
Программа кодирования : mkvmerge v8.2.0 ('World of Adventure') 64bit
Библиотека кодирования : libebml v1.3.1 + libmatroska v1.4.2

Видео
Идентификатор : 1
Формат : AVC
Формат/Информация : Advanced Video Codec
Профиль формата : High@L4.1
Параметр CABAC формата : Да
Параметр ReFrames формата : 9 кадров
Идентификатор кодека : V_MPEG4/ISO/AVC
Продолжительность : 1 ч. 24 м.
Битрейт : 5484 Кбит/сек
Ширина : 1280 пикселей
Высота : 690 пикселей
Соотношение сторон : 1,85:1
Режим частоты кадров : Постоянный
Частота кадров : 23,976 (24000/1001) кадра/сек
Цветовое пространство : YUV
Субдискретизация насыщенности : 4:2:0
Битовая глубина : 8 бит
Тип развёртки : Прогрессивная
Бит/(Пиксели*Кадры) : 0.259
Размер потока : 3,23 Гбайт (93%)
Библиотека кодирования : x264 core 146 r2538 121396c
Настройки программы : cabac=1 / ref=9 / deblock=1:-3:-3 / analyse=0x3:0x113 / me=umh / subme=9 / psy=1 / psy_rd=1.00:0.15 / mixed_ref=1 / me_range=32 / chroma_me=1 / trellis=1 / 8x8dct=1 / cqm=0 / deadzone=21,11 / fast_pskip=0 / chroma_qp_offset=-3 / threads=6 / lookahead_threads=1 / sliced_threads=0 / nr=0 / decimate=1 / interlaced=0 / bluray_compat=0 / constrained_intra=0 / bframes=16 / b_pyramid=2 / b_adapt=2 / b_bias=0 / direct=1 / weightb=0 / open_gop=0 / weightp=2 / keyint=230 / keyint_min=23 / scenecut=40 / intra_refresh=0 / rc_lookahead=40 / rc=crf / mbtree=0 / crf=22.0 / qcomp=0.60 / qpmin=0 / qpmax=69 / qpstep=4 / vbv_maxrate=50000 / vbv_bufsize=62500 / crf_max=0.0 / nal_hrd=none / filler=0 / ip_ratio=1.40 / pb_ratio=1.30 / aq=1:1.00
Язык : English
Default : Да
Forced : Нет

Аудио #1
Идентификатор : 2
Формат : AC-3
Формат/Информация : Audio Coding 3
Расширение режима : CM (complete main)
Параметр Endianness формата : Big
Идентификатор кодека : A_AC3
Продолжительность : 1 ч. 24 м.
Вид битрейта : Постоянный
Битрейт : 192 Кбит/сек
Каналы : 2 канала
Расположение каналов : Front: L R
Частота : 48,0 КГц
Частота кадров : 31,250 кадров/сек (1536 spf)
Метод сжатия : С потерями
Размер потока : 116 Мбайт (3%)
Заголовок : любительский одноголосый, Oneinchnales
Язык : Russian
Default : Да
Forced : Нет

Аудио #2
Идентификатор : 3
Формат : AC-3
Формат/Информация : Audio Coding 3
Расширение режима : CM (complete main)
Параметр Endianness формата : Big
Идентификатор кодека : A_AC3
Продолжительность : 1 ч. 24 м.
Вид битрейта : Постоянный
Битрейт : 192 Кбит/сек
Каналы : 2 канала
Расположение каналов : Front: L R
Частота : 48,0 КГц
Частота кадров : 31,250 кадров/сек (1536 spf)
Метод сжатия : С потерями
Размер потока : 116 Мбайт (3%)
Заголовок : original
Язык : English
Default : Нет
Forced : Нет

Текст #1
Идентификатор : 4
Формат : UTF-8
Идентификатор кодека : S_TEXT/UTF8
Идентификатор кодека/Информация : UTF-8 Plain Text
Продолжительность : 1 ч. 23 м.
Битрейт : 61 бит/сек
Count of elements : 661
Размер потока : 37,5 Кбайт (0%)
Заголовок : русские
Язык : Russian
Default : Да
Forced : Нет

Текст #2
Идентификатор : 5
Формат : UTF-8
Идентификатор кодека : S_TEXT/UTF8
Идентификатор кодека/Информация : UTF-8 Plain Text
Продолжительность : 1 ч. 23 м.
Битрейт : 6 бит/сек
Count of elements : 92
Размер потока : 4,25 Кбайт (0%)
Заголовок : русские (песни)
Язык : Russian
Default : Нет
Forced : Да

Текст #3
Идентификатор : 6
Формат : UTF-8
Идентификатор кодека : S_TEXT/UTF8
Идентификатор кодека/Информация : UTF-8 Plain Text
Продолжительность : 1 ч. 20 м.
Битрейт : 52 бит/сек
Count of elements : 920
Размер потока : 30,7 Кбайт (0%)
Заголовок : английские
Язык : English
Default : Нет
Forced : Нет

Меню
00:00:00.000 : en:
00:14:16.605 : en:
00:26:48.440 : en:
00:42:12.530 : en:
01:00:45.266 : en:
01:14:09.403 : en:



Скачать Призрак Оперы через торрент http://s020.radikal.ru/i709/1612/69/b692de859720.jpg Скачать, смотреть онлайн Призрак Оперы бесплантно в хорошем качестве Описание: Лондон, полный кэбов и газовых фонарей. Девяностые годы XIX века. Призрак в фильме — совершенно обычный, всю жизнь проживший ... 10 10 1
Info! Золотая раздача, скачанное не засчитывается.
Торрент: Зарегистрирован [2016-12-08 08:36] · скачан: 1 раз
Статус: √ проверено
Размер: 3.45 GB
Как cкачать? Как скачать Призрак Оперы через торрент | UTorrent

% Раздел Тема Автор DL S | L
Фильмы [HD 720p, 1080p] (Звук Cam, VO, DVO) [ 8.74 GB ] Призрак Оперы / The Phantom of the Opera | | 1080p msltel Скачать
1 | 0

28-11-2019 20:33  


Отключить вcю реклaмy на сайте, в т.ч. и в плеере онлайн просмотра!

    Дорогой пользователь! Огромная просьба, поблагодарите релизера, оцените раздачу и оставьте свои комментарий, если Вы скачали Призрак Оперы через торрент бесплатно!!
    Комментировать посты могут только пользователи прошедшие не сложную регистрацию
    Показать сообщения:    


    Призрак Оперы через торрент
    Скачать бесплатно Призрак Оперы
    Призрак Оперы скачать торрент
    Призрак Оперы смотреть онлайн
    Cкачать фильм Призрак Оперы бесплатно
    Призрак Оперы скачать торрент в хорошем качестве
    Призрак Оперы смотреть онлайн бесплатно в хорошем качестве
    Вы не можете начинать темы
    Вы не можете отвечать на сообщения
    Вы не можете редактировать свои сообщения
    Вы не можете удалять свои сообщения
    Вы не можете голосовать в опросах
    Вы не можете прикреплять файлы к сообщениям
    Вы можете скачивать файлы
    Призрак Оперы / The Phantom of the Opera [1962, ужасы, триллер, драма, детектив, музыка, BDRip 720p ] VO смотреть онлайн, скачать торрент picoco.icu