Лицензия

MVO

1

1 сезон

Лицензия

Лицензия

13

MVO

1 сезон

Deluxe Edition

pack

Рекомендуем

30

Repack

ВАЖНО

ВАЖНО

Ghostwire

RePack

jed

RePack

fifa19

RePack

RDR2

RePack

NEED FOR SPEED™ PAYBACK

RePack

Кинопоиск HD

 Острые козырьки 6 сезон

6 сезон

FAR CRY 6

RePack

Лицензия

MVO

1

1 сезон

1 сезон

Лицензия

  

Когда поют соловьи (Евгений Брюнчугин) [1956, СССР, мелодрама, драма, SATRip от AVP Studio]

Когда поют соловьи через торрент piratbit.org

Размер: 1.09 GB | Добавлен: 5 лет 9 мес. назад | Торрент скачан:7 раз
Смотреть онлайн Когда поют соловьи | Скачать   

08-12-2016 09:15 Когда поют соловьи Скачать торрент  

Когда поют соловьи
Страна: СССР
Производство: Киевская студия художественных фильмов

Жанр: мелодрама, драма
Год выпуска: 1956
Продолжительность: 01:22:05

Перевод: Не требуется
Cубтитры: нет
Оригинальная аудиодорожка: русский

Режиссер: Евгений Брюнчугин

В ролях:
Надежда Чередниченко, Ада Роговцева, Валентин Грудинин, Юрий Мажуга, Дмитрий Дубов, Зинаида Юрченко, Виктор Мягкий, Антон Дунайский, Нонна Копержинская, Софья Карамаш, Ольга Ножкина, Олег Борисов, Валентина Куценко, Юрий Лысенко, А. Резничук, Игорь Новаков, Леонид Данчишин, Дмитрий Капка, Миша Чернов...
Полный список актёров

Описание:
О производственных отношениях и соцсоревновании.
Главная героиня Марьяна Кудель, лучшая доярка колхоза «Труд», активно критикует консерватора председателя, и потому теперь она работает с самыми плохенькими коровами. Ей, очевидно, противопоставляется Катя Квитко - рекордсменка по надоям, которую всячески поддерживает председатель. Занятая парадной шумихой, Катя мало уделяет внимания работе, ссорится с влюбленным в нее зоотехником Василием, подругой Марьяной. В результате ее безалаберности погибает корова-рекордистка Волшебница. Марьянка же трудится с утра до позднего вечера и вскоре выходит на первое место. Катя же занимает всего лишь пятое. Самоотверженная Марьянка любит Василия, и, тем не менее, помогает ему и Кате снова найти друг друга. . .

Источник: DVB
Качество видео: SATRip
Формат видео: AVI

Видео: 688x512 (4:3), 25 fps, XviD ~ 1693 kbps avg, 0.192 bit/pixel
Аудио: 48 kHz, Dolby Digital AC3 2.0, 192 kbps

Раздача от:
Общее
Полное имя : Kogda.poyut.solovi.1956.SATRip_[New-team]_by_AVP_Studio.avi
Формат : AVI
Формат/Информация : Audio Video Interleave
Размер файла : 1,09 Гбайт
Продолжительность : 1 ч. 22 м.
Общий поток : 1895 Кбит/сек
Программа кодирования : VirtualDubMod 1.5.10.3 | www.virtualdub-fr.org || (build 2550/release)
Библиотека кодирования : VirtualDubMod build 2550/release

Видео
Идентификатор : 0
Формат : MPEG-4 Visual
Профиль формата : Advanced Simple@L5
Параметр BVOP формата : 1
Параметр QPel формата : Нет
Параметр GMC формата : Без точки перехода
Параметр матрицы формата : Выборочная
Идентификатор кодека : XVID
Идентификатор кодека/Подсказка : XviD
Продолжительность : 1 ч. 22 м.
Битрейт : 1693 Кбит/сек
Ширина : 688 пикселей
Высота : 512 пикселей
Соотношение сторон : 4:3
Частота кадров : 25,000 кадров/сек
Цветовое пространство : YUV
Субдискретизация насыщенности : 4:2:0
Битовая глубина : 8 бит
Тип развёртки : Прогрессивная
Метод сжатия : С потерями
Бит/(Пиксели*Кадры) : 0.192
Размер потока : 997 Мбайт (89%)
Библиотека кодирования : XviD 1.2.1 (UTC 2008-12-04)

Аудио
Идентификатор : 1
Формат : AC-3
Формат/Информация : Audio Coding 3
Расширение режима : CM (complete main)
Параметр Endianness формата : Big
Идентификатор кодека : 2000
Продолжительность : 1 ч. 22 м.
Вид битрейта : Постоянный
Битрейт : 192 Кбит/сек
Каналы : 2 канала
Расположение каналов : Front: L R
Частота : 48,0 КГц
Частота кадров : 31,250 кадров/сек (1536 spf)
Битовая глубина : 16 бит
Метод сжатия : С потерями
Размер потока : 113 Мбайт (10%)
Выравнивание : Разделение по промежуткам
Продолжительность промежутка : 40 мс. (1,00 видеокадр)
Время предзагрузки промежутка : 500 мс



Скачать Когда поют соловьи через торрент http://s019.radikal.ru/i612/1612/a8/fd088590766f.png Скачать, смотреть онлайн Когда поют соловьи бесплантно в хорошем качестве Описание:О производственных отношениях и соцсоревновании.Главная героиня Марьяна Кудель, лучшая доярка колхоза «Труд», активно критикует ... 10 10 1
Info! Золотая раздача, скачанное не засчитывается.
Торрент: Зарегистрирован [2016-12-08 09:15] · скачан: 7 раз
Статус: √ проверено
Размер: 1.09 GB
Как cкачать? Как скачать Когда поют соловьи через торрент | UTorrent

% Раздел Тема Автор DL S | L
Кино СССР [ 1.09 GB ] Когда поют соловьи | | SATRip-AVC от AVP Studio AVP Studio Скачать
1 | 0
Кино СССР [ 745 MB ] Когда поют соловьи | | SATRip от AVP Studio AVP Studio Скачать
1 | 0

28-11-2019 20:33  

Отключить вcю реклaмy на сайте

    Дорогой пользователь! Огромная просьба, поблагодарите релизера, оцените раздачу и оставьте свои комментарий, если Вы скачали Когда поют соловьи через торрент бесплатно!!
    Комментировать посты могут только пользователи прошедшие не сложную регистрацию
    Показать сообщения:    


    Когда поют соловьи через торрент
    Скачать бесплатно Когда поют соловьи
    Когда поют соловьи скачать торрент
    Когда поют соловьи смотреть онлайн
    Cкачать фильм Когда поют соловьи бесплатно
    Когда поют соловьи скачать торрент в хорошем качестве
    Когда поют соловьи смотреть онлайн бесплатно в хорошем качестве
    Вы не можете начинать темы
    Вы не можете отвечать на сообщения
    Вы не можете редактировать свои сообщения
    Вы не можете удалять свои сообщения
    Вы не можете голосовать в опросах
    Вы не можете прикреплять файлы к сообщениям
    Вы можете скачивать файлы