Лицензия

MVO

1

1 сезон

Лицензия

Лицензия

13

MVO

1 сезон

Deluxe Edition

pack

Рекомендуем

30

Repack

ВАЖНО

ВАЖНО

Ghostwire

RePack

jed

RePack

fifa19

RePack

RDR2

RePack

NEED FOR SPEED™ PAYBACK

RePack

Кинопоиск HD

 Острые козырьки 6 сезон

6 сезон

FAR CRY 6

RePack

Лицензия

MVO

1

1 сезон

1 сезон

Лицензия

  

Крылья (Татьяна Лукашевич, Константин Зубов) [1956, СССР, драма, SATRip от AVP Studio]

Крылья через торрент piratbit.org

Размер: 1.09 GB | Добавлен: 5 лет 9 мес. назад | Торрент скачан:10 раз
Смотреть онлайн Крылья | Скачать   

09-12-2016 07:40 Крылья Скачать торрент  

Крылья
Страна: СССР
Производство: МОСФИЛЬМ

Жанр: драма
Год выпуска: 1956
Продолжительность: 01:36:53

Перевод: Не требуется
Cубтитры: нет
Оригинальная аудиодорожка: русский

Режиссер: Татьяна Лукашевич, Константин Зубов

В ролях:
Михаил Царёв, Николай Комиссаров, Александра Сальникова, Николай Светловидов, Елена Рубцова, Иван Верейский, Ксения Тарасова, Виктор Хохряков, Елена Гоголева, Клавдия Блохина, Ирина Ликсо, Виталий Доронин, Владимир Колосов, Павел Оленев, Софья Фадеева, Элла Далматова, Александра Яблочкина, Юрий Аверин, Георгий Ковров (Кувшинов), Виктор Шарлахов, Николай Сивов, Николай Шамин, Аркадий Смирнов, Генриетта Егорова, Сергей Калабин, Борис Сазонов...
Полный список актёров

Описание:
Фильм-спектакль по одноименной пьесе А.Корнейчука в постановке Государственного академического Малого театра СССР.
В первые годы после войны врача Анну Андреевну Падолист арестовывают по обвинению в государственной измене. Ее муж Ромодан - коммунист, участник Великой Отечественной войны - не может добиться истины. Все его попытки доказать ее невиновность и вернуть жену в семью заканчиваются безуспешно. Вскоре Ромодана назначают секретарем партии одного из областных центров Украины. Под его руководством труженики области добиваются первых успехов. К нему приходит слава. После разоблачения банды Берия Анну Андреевну, как ложно обвиненную, освобождают. Не зная, что все эти годы муж добивался пересмотра ее дела, она не может простить ему сомнений. Но проходит время, недоразумения рассеиваются - и Ромодан добивается любви жены и дочери.

Источник: DVB
Качество видео: SATRip
Формат видео: AVI

Видео: 704x528 (4:3), 25 fps, XviD ~ 1408 kbps avg, 0.151 bit/pixel
Аудио: 48 kHz, Dolby Digital AC3 2.0, 192 kbps

Раздача от:
Общее
Полное имя : Krylya.1956.SATRip_[New-team]_by_AVP_Studio.avi
Формат : AVI
Формат/Информация : Audio Video Interleave
Размер файла : 1,09 Гбайт
Продолжительность : 1 ч. 36 м.
Общий поток : 1610 Кбит/сек
Программа кодирования : VirtualDubMod 1.5.10.3 | www.virtualdub-fr.org || (build 2550/release)
Библиотека кодирования : VirtualDubMod build 2550/release

Видео
Идентификатор : 0
Формат : MPEG-4 Visual
Профиль формата : Advanced Simple@L5
Параметр BVOP формата : 1
Параметр QPel формата : Нет
Параметр GMC формата : Без точки перехода
Параметр матрицы формата : Выборочная
Идентификатор кодека : XVID
Идентификатор кодека/Подсказка : XviD
Продолжительность : 1 ч. 36 м.
Битрейт : 1408 Кбит/сек
Ширина : 704 пикселя
Высота : 528 пикселей
Соотношение сторон : 4:3
Частота кадров : 25,000 кадров/сек
Цветовое пространство : YUV
Субдискретизация насыщенности : 4:2:0
Битовая глубина : 8 бит
Тип развёртки : Прогрессивная
Метод сжатия : С потерями
Бит/(Пиксели*Кадры) : 0.151
Размер потока : 976 Мбайт (87%)
Библиотека кодирования : XviD 1.2.1 (UTC 2008-12-04)

Аудио
Идентификатор : 1
Формат : AC-3
Формат/Информация : Audio Coding 3
Расширение режима : CM (complete main)
Параметр Endianness формата : Big
Идентификатор кодека : 2000
Продолжительность : 1 ч. 36 м.
Вид битрейта : Постоянный
Битрейт : 192 Кбит/сек
Каналы : 2 канала
Расположение каналов : Front: L R
Частота : 48,0 КГц
Частота кадров : 31,250 кадров/сек (1536 spf)
Битовая глубина : 16 бит
Метод сжатия : С потерями
Размер потока : 133 Мбайт (12%)
Выравнивание : Разделение по промежуткам
Продолжительность промежутка : 40 мс. (1,00 видеокадр)
Время предзагрузки промежутка : 500 мс



Скачать Крылья через торрент http://s017.radikal.ru/i407/1612/69/4acf1af90d04.png Скачать, смотреть онлайн Крылья бесплантно в хорошем качестве Описание:Фильм-спектакль по одноименной пьесе А.Корнейчука в постановке Государственного академического Малого театра СССР.В первые годы ... 5 10 1
Info! Золотая раздача, скачанное не засчитывается.
Торрент: Зарегистрирован [2016-12-09 07:40] · скачан: 10 раз
Статус: √ проверено
Размер: 1.09 GB
Как cкачать? Как скачать Крылья через торрент | UTorrent

% Раздел Тема Автор DL S | L
Кино СССР [ 1.09 GB ] Крылья | | SATRip-AVC от AVP Studio AVP Studio Скачать
1 | 0

28-11-2019 20:33  

Отключить вcю реклaмy на сайте

    Дорогой пользователь! Огромная просьба, поблагодарите релизера, оцените раздачу и оставьте свои комментарий, если Вы скачали Крылья через торрент бесплатно!!
    Комментировать посты могут только пользователи прошедшие не сложную регистрацию
    Показать сообщения:    


    Крылья через торрент
    Скачать бесплатно Крылья
    Крылья скачать торрент
    Крылья смотреть онлайн
    Cкачать фильм Крылья бесплатно
    Крылья скачать торрент в хорошем качестве
    Крылья смотреть онлайн бесплатно в хорошем качестве
    Вы не можете начинать темы
    Вы не можете отвечать на сообщения
    Вы не можете редактировать свои сообщения
    Вы не можете удалять свои сообщения
    Вы не можете голосовать в опросах
    Вы не можете прикреплять файлы к сообщениям
    Вы можете скачивать файлы