1 сезон

3 сезон

iTunes

1

iTunes

DUB Netflix

iTunes

13

1 сезон

RePack

30

Deluxe

pack

Легкие деньги

ВАЖНО

ИГРА 18+

pack

RePack

MK11

RePack

jed

RePack

fifa19

RePack

RDR2

RePack

NEED FOR SPEED™ PAYBACK

4 сезон

9 сезон

Бесстыжие 9 сезон

Все сериалы

все сериалы на PB.wtf

RePack

FAR CRY 5

Anonymous, добрый день, мы не успеваем до 1 числа собрать деньги на оплату серверов, помогите нам пожалуйста в это трудное время. В качестве благодарности мы отключим Вам всю рекламу на сайте (укажите свой ник в строку Ваше имя)!

×
  
Magnet ссылка

Большой и добрый великан / The BFG (Стивен Спилберг / Steven Spielberg) [2016, Великобритания, Канада, США, Фэнтези, приключения, семейный, HDRip by _Один_777] Dub (iTunes) piratbit.org

Большой и добрый великан через торрент piratbit.org

Размер: 743 MB | Добавлен: 4 года 6 мес. назад | Торрент скачан:72 раза
Скачать  

09-12-2016 07:55 Большой и добрый великан Скачать торрент  

Большой и добрый великан / The BFG
«Если твой друг великан, тебя ждут великие дела»

Год выпуска: 2016
Страна: Великобритания, Канада, США / Amblin Entertainment, DreamWorks SKG, Reliance Entertainment, The Kennedy/Marshall Company, Walden Media, Walt Disney Pictures
Жанр: Фэнтези, приключения, семейный
Продолжительность: 01:57:06
Перевод: Профессиональный (дублированный) iTunes
Cубтитры: нет

Режиссер: Стивен Спилберг / Steven Spielberg

В ролях: Марк Райлэнс, Руби Барнхилл, Пенелопа Уилтон, Джемейн Клемент, Ребекка Холл, Рейф Сполл, Билл Хейдер, Оулавюр Дарри Оулафссон, Адам Годли, Майкл Адамуэйт...

Описание: В центре истории девочка по имени Софи, которая не смогла заснуть до полуночи и в окошко увидела огромного великана, который подходил к соседним домам и начинал дуть в окна спален. В полном соответствии со старинными поверьями и детскими страшилками, великан увидел Софи и унес к себе домой, в страну великанов.
Как оказалось, он в этой самой стране был единственным добрым великаном: действуя в обстановке строжайшей секретности, он коллекционировал хорошие сны, которые по ночам раздавал детям. Уши у него устроены таким образом, что он слышит, что и о чем снится ребятам, и никогда не позволяет им видеть кошмары.


Сэмпл: http://sendfile.su/1288967


Качество видео: HDRip
Формат видео: AVI
Видео кодек: XviD
Аудио кодек: МР3
Видео: 640x272 (2.35:1), 23.976 fps, XviD build 73 ~750 kbps avg, 0.18 bit/pixel
Аудио: 48 kHz, MPEG Layer 3, 2 ch, ~128.00 kbps avg
Общее
Полное имя : G:\Bol'shoj.i.dobryj.velikan.2016.НDRip.740.[Один 777].avi
Формат : AVI
Формат/Информация : Audio Video Interleave
Размер файла : 743 Мбайт
Продолжительность : 1 ч. 57 м.
Общий поток : 887 Кбит/сек
Программа кодирования : VirtualDubMod 1.5.10.3 | www.virtualdub-fr.org || (build 2550/release)
Библиотека кодирования : VirtualDubMod build 2550/release

Видео
Идентификатор : 0
Формат : MPEG-4 Visual
Профиль формата : Advanced Simple@L5
Параметр BVOP формата : 1
Параметр QPel формата : Нет
Параметр GMC формата : Без точки перехода
Параметр матрицы формата : Default (H.263)
Идентификатор кодека : XVID
Идентификатор кодека/Подсказка : XviD
Продолжительность : 1 ч. 57 м.
Битрейт : 750 Кбит/сек
Ширина : 640 пикселей
Высота : 272 пикселя
Соотношение сторон : 2,35:1
Частота кадров : 23,976 (23976/1000) кадра/сек
Цветовое пространство : YUV
Субдискретизация насыщенности : 4:2:0
Битовая глубина : 8 бит
Тип развёртки : Прогрессивная
Метод сжатия : С потерями
Бит/(Пиксели*Кадры) : 0.180
Размер потока : 628 Мбайт (85%)
Библиотека кодирования : XviD 73

Аудио
Идентификатор : 1
Формат : MPEG Audio
Версия формата : Version 1
Профиль формата : Layer 3
Идентификатор кодека : 55
Идентификатор кодека/Подсказка : MP3
Продолжительность : 1 ч. 57 м.
Вид битрейта : Постоянный
Битрейт : 128 Кбит/сек
Каналы : 2 канала
Частота : 48,0 КГц
Метод сжатия : С потерями
Размер потока : 107 Мбайт (14%)
Выравнивание : Соединение по промежуткам
Продолжительность промежутка : 42 мс. (1,00 видеокадр)
Время предзагрузки промежутка : 504 мс.
Библиотека кодирования : LAME3.99r
Настройки программы : -m s -V 4 -q 2 -lowpass 17 -b 128
piratbit.org



Скачать Большой и добрый великан через торрент http://i2.imageban.ru/out/2016/11/17/5064fef74ec128ee0093a44971c0a134.jpg Скачать фильм Большой и добрый великан через торрент бесплантно в хорошем качестве Описание: В центре истории девочка по имени Софи, которая не смогла заснуть до полуночи и в окошко увидела огромного великана, который ... 8.7 10 14
Info! Золотая раздача, скачанное не засчитывается.
Торрент: Зарегистрирован [2016-12-09 07:55] · скачан: 72 раз
Статус: √ проверено
Размер: 743 MB
Как cкачать? Как скачать Большой и добрый великан через торрент | UTorrent

% Раздел Тема Автор DL S | L
Фильмы 2016 [DVDrip, WEB-DLRip, HDrip] (DUB, MVO) [ 1.46 GB ] Большой и добрый великан / The BFG [2016 WEB-DLRip] [Локализованный видеоряд] killermax2013 Скачать
1 | 0
Фильмы [HD 720p, 1080p] (Хороший звук DUB, MVO) [ 11.31 GB ] Большой и добрый великан / The BFG [2016 BDRip 1080p] - sheker187 Скачать
1 | 0
Фильмы с авторской озвучкой [ 2.18 GB ] Большой и добрый великан / The BFG [2016 BDRip] [AVO] killermax2013 Скачать
1 | 0
3D Фильмы [ 11.64 GB ] Большой и добрый великан в 3Д / The BFG 3D [2016 BDrip 1080p] OverUnder / Вертикальная стереопара serega768 Скачать
1 | 0
Фильмы 2016 [DVDrip, WEB-DLRip, HDrip] (DUB, MVO) [ 2.18 GB ] Большой и добрый великан / The BFG [2016 BDRip] - [] Twi7ter Скачать
2 | 0
Фильмы 2016 [DVDrip, WEB-DLRip, HDrip] (DUB, MVO) [ 1.46 GB ] Большой и добрый великан / The BFG [2016 BDRip] - [] Twi7ter Скачать
1 | 0
R.G. Resident & PiratVoice - Фильмы, Видео [ 3.03 GB ] Большой и добрый великан / The BFG [2016 BDRip-AVC] - R.G.Resident schultz Скачать
2 | 0

28-11-2019 20:33  

Отключить всю рекламу на сайте

    Дорогой пользователь! Огромная просьба, поблагодарите релизера, оцените раздачу и оставьте свои комментарий, если Вы скачали Большой и добрый великан через торрент бесплатно! Внесите свою лепту в развитие PiratBit!
    Комментировать посты могут только пользователи прошедшие не сложную регистрацию
    Показать сообщения:    

    Большой и добрый великан через торрент
    Скачать бесплатно Большой и добрый великан
    Большой и добрый великан скачать торрент
    Большой и добрый великан смотреть онлайн
    Cкачать фильм Большой и добрый великан бесплатно
    Большой и добрый великан скачать торрент в хорошем качестве
    Большой и добрый великан смотреть онлайн бесплатно в хорошем качестве


    Вы не можете начинать темы
    Вы не можете отвечать на сообщения
    Вы не можете редактировать свои сообщения
    Вы не можете удалять свои сообщения
    Вы не можете голосовать в опросах
    Вы не можете прикреплять файлы к сообщениям
    Вы можете скачивать файлы