Доктор Стрэндж

Лицензия

Добыча

MVO

Дом дракона

1 сезон

Тор

Лицензия

Мэверик

Лицензия

Там, где раки поют

MVO

Властелин колец

1 сезон

Ultimate

pack

Рекомендуем

30

Repack

ВАЖНО

ВАЖНО

Ghostwire

RePack

jed

RePack

nioh2

RePack

RDR2

RePack

NEED FOR SPEED™ PAYBACK

RePack

скачать торрент

Кинопоиск HD

Острые козырьки 6 сезон

6 сезон

FAR CRY 6

RePack

скачать торрент

Лицензия

скачать торрент

MVO

1

1 сезон

скачать торрент

1 сезон

скачать торрент

Лицензия

  

В погоне за славой (Рафаил Гольдин) [1956, СССР, драма, SATRip от AVP Studio]

В погоне за славой через торрент piratbit.org

Размер: 1.09 GB | Добавлен: 5 лет 9 мес. назад | Торрент скачан:5 раз
Смотреть онлайн В погоне за славой | Скачать   

10-12-2016 08:05 В погоне за славой Скачать торрент  

В погоне за славой
Страна: СССР
Производство: Свердловская киностудия

Жанр: драма
Год выпуска: 1956
Продолжительность: 01:22:29

Перевод: Не требуется
Cубтитры: нет
Оригинальная аудиодорожка: русский

Режиссер: Рафаил Гольдин

В ролях:
Геннадий Юдин, Юрий Саранцев, Наталья Каташева, Михаил Буйный, Константин Максимов, Адольф Ильин, Муза Крепкогорская, Владимир Иванов (X), Юрий Васильев (III), Алексей Глазырин, Антонина Комарова...
Полный список актёров

Описание:
В конструкторском бюро одного уральского завода работают два друга-инженера - Петр Арефьев и Алексей Егорычев. Как-то раз начальник конструкторского бюро ставит перед ними задачу по реконструкции картофелеуборочного комбайна, и старшим группы, как всегда, назначает Петра. Но тот отказывается, объясняя, что реконструкция ничего не даст, что надо проектировать принципиально новую машину. Тогда старшим назначают Алексея, чему тот только рад. Но из этой затеи, как и предвидел Петр, ничего не получается. В это время от одного местного изобретателя-самоучки в бюро поступает проект нового комбайна, той самой принципиально новой машины, о которой говорил Петр. Этот проект случайно попадает в руки Алексею, и он решает, движимый честолюбивыми замыслами, выдать его за свой, идя к цели путем интриг и обмана. В итоге, от него отворачиваются друзья и любимая женщина.

Источник: DVB
Качество видео: SATRip
Формат видео: AVI

Видео: 688x512 (4:3), 25 fps, XviD ~ 1690 kbps avg, 0.192 bit/pixel
Аудио: 48 kHz, Dolby Digital AC3 2.0, 192 kbps

Раздача от:
Общее
Полное имя : V.pogone.za.slavoy.1956.SATRip_[New-team]_by_AVP_Studio.avi
Формат : AVI
Формат/Информация : Audio Video Interleave
Размер файла : 1,09 Гбайт
Продолжительность : 1 ч. 22 м.
Общий поток : 1891 Кбит/сек
Программа кодирования : VirtualDubMod 1.5.10.3 | www.virtualdub-fr.org || (build 2550/release)
Библиотека кодирования : VirtualDubMod build 2550/release

Видео
Идентификатор : 0
Формат : MPEG-4 Visual
Профиль формата : Advanced Simple@L5
Параметр BVOP формата : 1
Параметр QPel формата : Нет
Параметр GMC формата : Без точки перехода
Параметр матрицы формата : Выборочная
Идентификатор кодека : XVID
Идентификатор кодека/Подсказка : XviD
Продолжительность : 1 ч. 22 м.
Битрейт : 1690 Кбит/сек
Ширина : 688 пикселей
Высота : 512 пикселей
Соотношение сторон : 4:3
Частота кадров : 25,000 кадров/сек
Цветовое пространство : YUV
Субдискретизация насыщенности : 4:2:0
Битовая глубина : 8 бит
Тип развёртки : Прогрессивная
Метод сжатия : С потерями
Бит/(Пиксели*Кадры) : 0.192
Размер потока : 997 Мбайт (89%)
Библиотека кодирования : XviD 1.2.1 (UTC 2008-12-04)

Аудио
Идентификатор : 1
Формат : AC-3
Формат/Информация : Audio Coding 3
Расширение режима : CM (complete main)
Параметр Endianness формата : Big
Идентификатор кодека : 2000
Продолжительность : 1 ч. 22 м.
Вид битрейта : Постоянный
Битрейт : 192 Кбит/сек
Каналы : 2 канала
Расположение каналов : Front: L R
Частота : 48,0 КГц
Частота кадров : 31,250 кадров/сек (1536 spf)
Битовая глубина : 16 бит
Метод сжатия : С потерями
Размер потока : 113 Мбайт (10%)
Выравнивание : Разделение по промежуткам
Продолжительность промежутка : 40 мс. (1,00 видеокадр)
Время предзагрузки промежутка : 500 мс



Скачать В погоне за славой через торрент http://s017.radikal.ru/i408/1612/3f/1f7e846d6a16.png Скачать, смотреть онлайн В погоне за славой бесплантно в хорошем качестве Описание:В конструкторском бюро одного уральского завода работают два друга-инженера - Петр Арефьев и Алексей Егорычев. Как-то раз ... 10 10 1
Info! Золотая раздача, скачанное не засчитывается.
Торрент: Зарегистрирован [2016-12-10 08:05] · скачан: 5 раз
Статус: √ проверено
Размер: 1.09 GB
Как cкачать? Как скачать В погоне за славой через торрент | UTorrent

% Раздел Тема Автор DL S | L
Кино СССР [ 1.09 GB ] В погоне за славой | | SATRip-AVC от AVP Studio AVP Studio Скачать
1 | 0
Кино СССР [ 745 MB ] В погоне за славой | | SATRip от AVP Studio AVP Studio Скачать
1 | 0

28-11-2019 20:33  

Отключить вcю реклaмy на сайте

    Дорогой пользователь! Огромная просьба, поблагодарите релизера, оцените раздачу и оставьте свои комментарий, если Вы скачали В погоне за славой через торрент бесплатно!!
    Комментировать посты могут только пользователи прошедшие не сложную регистрацию
    Показать сообщения:    


    В погоне за славой через торрент
    Скачать бесплатно В погоне за славой
    В погоне за славой скачать торрент
    В погоне за славой смотреть онлайн
    Cкачать фильм В погоне за славой бесплатно
    В погоне за славой скачать торрент в хорошем качестве
    В погоне за славой смотреть онлайн бесплатно в хорошем качестве
    Вы не можете начинать темы
    Вы не можете отвечать на сообщения
    Вы не можете редактировать свои сообщения
    Вы не можете удалять свои сообщения
    Вы не можете голосовать в опросах
    Вы не можете прикреплять файлы к сообщениям
    Вы можете скачивать файлы