1 сезон

3 сезон

iTunes

1

iTunes

DUB Netflix

iTunes

13

1 сезон

RePack

30

Deluxe

pack

Легкие деньги

ВАЖНО

ИГРА 18+

pack

RePack

MK11

RePack

jed

RePack

fifa19

RePack

RDR2

RePack

NEED FOR SPEED™ PAYBACK

4 сезон

9 сезон

Бесстыжие 9 сезон

Все сериалы

все сериалы на PB.wtf

RePack

FAR CRY 5

Anonymous, добрый вечер, мы не успеваем до 1 числа собрать деньги на оплату серверов, помогите нам пожалуйста в это трудное время. В качестве благодарности мы отключим Вам всю рекламу на сайте (укажите свой ник в строку Ваше имя)!

×
  
Magnet ссылка

Выбор / The Choice (Росс Кац) [2016, драма, мелодрама, HDRip] Дубляж - [Лицензия] piratbit.org

Выбор через торрент piratbit.org

Раздают: 1 [ 0 KB/s ]
Размер: 1.45 GB | Добавлен: 4 года 6 мес. назад | Торрент скачан:830 раз
Скачать  

11-12-2016 09:50 Выбор Скачать торрент  

Выбор / The Choice

Год выпуска: 2016
Страна: США
Жанр: драма, мелодрама

Продолжительность: 01:51:06
Перевод: Дубляж - [Лицензия]
Режиссер: Росс Кац
В ролях:

Бенджамин Уокер (Travis), Тереза Палмер (Gabby), Мэгги Грэйс (Steph), Александра Даддарио (Monica), Том Уилкинсон (Shep), Том Уэллинг (Ryan), Джесси Бойд (Matt), Брэд Джеймс (Ben), Нори Виктория (Liz), Анна Энгер (Megan), Lou Lou Safran (Katie), Вэнс Грисволд (Jesse)
Описание:
Любовь? Серьезные отношения? Ответственность? Семья? Закоренелый холостяк Тревис Паркер считает, что все это не для него. У него есть отличная работа и верные друзья. Он увлекается охотой, рыбалкой, занимается экстремальными видами спорта - и избегает серьезных отношений. Но не родился еще на свет человек, которому удалось бы уйти от настоящей любви... Когда в доме по соседству поселяется тихая, замкнутая Габи, жизнь Тревиса меняется.
Рейтинг:

MPAA: PG-13 - Детям до 13 лет просмотр не желателен
Качество: HDRip
Формат: AVI
Видео: XviD, 720x304 (2.35:1), 1407 kbps, 23,976 fps, 0,268 bpp
Аудио: AC3 / 5.1 / 48 kHz / 384 kbps /

General
Complete name : E:\B160p.2016.D.BDRip.1.46GB.avi
Format : AVI
Format/Info : Audio Video Interleave
File size : 1.45 GiB
Duration : 1 h 51 min
Overall bit rate : 1 874 kb/s
Writing application : VirtualDubMod 1.5.10.2 (build 2540/release)
Writing library : VirtualDubMod build 2540/release

Video
ID : 0
Format : MPEG-4 Visual
Format profile : Advanced Simple@L5
Format settings, BVOP : 2
Format settings, QPel : No
Format settings, GMC : No warppoints
Format settings, Matrix : Default (MPEG)
Codec ID : XVID
Codec ID/Hint : XviD
Duration : 1 h 51 min
Bit rate : 1 407 kb/s
Width : 720 pixels
Height : 304 pixels
Display aspect ratio : 2.35:1
Frame rate : 23.976 (24000/1001) FPS
Color space : YUV
Chroma subsampling : 4:2:0
Bit depth : 8 bits
Scan type : Progressive
Compression mode : Lossy
Bits/(Pixel*Frame) : 0.268
Stream size : 1.09 GiB (75%)
Writing library : XviD 1.2.1 (UTC 2008-12-04)

Audio
ID : 1
Format : AC-3
Format/Info : Audio Coding 3
Mode extension : CM (complete main)
Format settings, Endianness : Big
Codec ID : 2000
Duration : 1 h 51 min
Bit rate mode : Constant
Bit rate : 384 kb/s
Channel(s) : 6 channels
Channel positions : Front: L C R, Side: L R, LFE
Sampling rate : 48.0 kHz
Frame rate : 31.250 FPS (1536 spf)
Compression mode : Lossy
Stream size : 305 MiB (20%)
Alignment : Split accross interleaves
piratbit.org



Скачать Выбор через торрент http://i1.imageban.ru/out/2016/12/11/b8d05eb3e8c395d291a7043387e0fff4.jpg Скачать фильм Выбор через торрент бесплантно в хорошем качестве Описание: Любовь? Серьезные отношения? Ответственность? Семья? Закоренелый холостяк Тревис Паркер считает, что все это не для него. У него ... 9.8 10 11
Торрент: Зарегистрирован [2016-12-11 09:50] · скачан: 830 раз
Статус: √ проверено
Размер: 1.45 GB
Как cкачать? Как скачать Выбор через торрент | UTorrent

% Раздел Тема Автор DL S | L
Классические порно фильмы [ 1.82 GB ] Народный Выбор: Зал Славы / The Peoples Choice: Hall Of Fame Babes [1980 Classic Compilation DVDRip] Леонид Ильич Скачать
1 | 0
Порно фильмы с сюжетом [ 1.25 GB ] Выбор Матушки / A Mother's Choice [2017 Feature Family Roleplay Affairs & Love Triangles WEB-DL 544p Оригинальный] nn99nn Скачать
1 | 0
Фильмы [HD 720p, 1080p] (Хороший звук DUB, MVO) [ 5.1 GB ] Выбор / The Choice [2016 BDRip 720p] - [] bober100 Скачать
1 | 0
Фильмы 2016 [DVDrip, WEB-DLRip, HDrip] (DUB, MVO) [ 2.11 GB ] Выбор / The Choice [2016 BDRip-AVC] DUB [] bober100 Скачать
1 | 1
Фильмы [HD 720p, 1080p] (Хороший звук DUB, MVO) [ 10.96 GB ] Выбор / The Choice [2016 BDRip 1080p] - [] -Lexx- Скачать
1 | 0
Документальные фильмы и телепередачи [ 4.63 GB ] Выбор за нами / The Choice Is Ours [2015 Документальный WEBRip 1080p ] Quatron Скачать
1 | 0
Фильмы без перевода [ 3.32 GB ] Выбор / The Choice [2016 WEB-DL 720p] [ENG] killermax2013 Скачать
1 | 0

28-11-2019 20:33  

Отключить всю рекламу на сайте

    Дорогой пользователь! Огромная просьба, поблагодарите релизера, оцените раздачу и оставьте свои комментарий, если Вы скачали Выбор через торрент бесплатно! Внесите свою лепту в развитие PiratBit!
    Комментировать посты могут только пользователи прошедшие не сложную регистрацию
    Показать сообщения:    

    Выбор через торрент
    Скачать бесплатно Выбор
    Выбор скачать торрент
    Выбор смотреть онлайн
    Cкачать фильм Выбор бесплатно
    Выбор скачать торрент в хорошем качестве
    Выбор смотреть онлайн бесплатно в хорошем качестве


    Вы не можете начинать темы
    Вы не можете отвечать на сообщения
    Вы не можете редактировать свои сообщения
    Вы не можете удалять свои сообщения
    Вы не можете голосовать в опросах
    Вы не можете прикреплять файлы к сообщениям
    Вы можете скачивать файлы