1 сезон

3 сезон

iTunes

1

iTunes

DUB Netflix

iTunes

13

1 сезон

RePack

30

Deluxe

pack

Легкие деньги

ВАЖНО

ИГРА 18+

pack

RePack

MK11

RePack

jed

RePack

fifa19

RePack

RDR2

RePack

NEED FOR SPEED™ PAYBACK

4 сезон

9 сезон

Бесстыжие 9 сезон

Все сериалы

все сериалы на PB.wtf

RePack

FAR CRY 5

Anonymous, добрый день, мы не успеваем до 1 числа собрать деньги на оплату серверов, помогите нам пожалуйста в это трудное время. В качестве благодарности мы отключим Вам всю рекламу на сайте (укажите свой ник в строку Ваше имя)!

×
  
Magnet ссылка

Спектральный анализ / Spectral (Ник Матьё / Nic Mathieu) [2016, США, Фантастика, боевик, триллер, WEBRip by _Один_777] MVO (@MUZOBOZ@) piratbit.org

Спектральный анализ через торрент piratbit.org

Размер: 747 MB | Добавлен: 4 года 6 мес. назад | Торрент скачан:461 раз
Скачать  

11-12-2016 18:59 Спектральный анализ Скачать торрент  

Спектральный анализ / Spectral
«Сверхъестественные близкие контакты третьего рода»

Год выпуска: 2016
Страна: США / Legendary Pictures, Mid Atlantic Films, NetFlix
Жанр: Фантастика, боевик, триллер
Продолжительность: 01:47:33
Перевод: Любительский (многоголосый закадровый) @MUZOBOZ@
Cубтитры: нет

Режиссер: Ник Матьё / Nic Mathieu

В ролях: Эмили Мортимер, Клейн Кроуфорд, Макс Мартини, Джеймс Бэдж Дэйл, Брюс Гринвуд, Райан Роббинс, Урсула Паркер, Кори Хардрикт, Гонсало Менендес, Луис Одзава Чангчьен...

Описание: В Молдавии уже не первый год идёт война. Последнее время в зоне боевых действий стали появляться невидимые невооружённым глазом существа, которые мгновенно убивают вооружённых до зубов обученных профессионалов. Доктор Клайн принимал участие в разработке новейшего оружия, бессильного против этих существ, и теперь ему предстоит выяснить, что они такое и откуда взялись.


Сэмпл: http://sendfile.su/1289718


Качество видео: WEBRip
Формат видео: AVI
Видео кодек: XviD
Аудио кодек: МР3
Видео: 640x272 (2.35:1), 23.976 fps, XviD build 73 ~834 kbps avg, 0.20 bit/pixel
Аудио: 48 kHz, MPEG Layer 3, 2 ch, ~128.00 kbps avg
Общее
Полное имя : F:\Spektral'nyj.analiz.2016.WEBRip.740.[Один 777].avi
Формат : AVI
Формат/Информация : Audio Video Interleave
Размер файла : 747 Мбайт
Продолжительность : 1 ч. 47 м.
Общий поток : 972 Кбит/сек
Программа кодирования : VirtualDubMod 1.5.10.3 | www.virtualdub-fr.org || (build 2550/release)
Библиотека кодирования : VirtualDubMod build 2550/release

Видео
Идентификатор : 0
Формат : MPEG-4 Visual
Профиль формата : Advanced Simple@L5
Параметр BVOP формата : 1
Параметр QPel формата : Нет
Параметр GMC формата : Без точки перехода
Параметр матрицы формата : Default (H.263)
Идентификатор кодека : XVID
Идентификатор кодека/Подсказка : XviD
Продолжительность : 1 ч. 47 м.
Битрейт : 834 Кбит/сек
Ширина : 640 пикселей
Высота : 272 пикселя
Соотношение сторон : 2,35:1
Частота кадров : 23,976 (23976/1000) кадра/сек
Цветовое пространство : YUV
Субдискретизация насыщенности : 4:2:0
Битовая глубина : 8 бит
Тип развёртки : Прогрессивная
Метод сжатия : С потерями
Бит/(Пиксели*Кадры) : 0.200
Размер потока : 642 Мбайт (86%)
Библиотека кодирования : XviD 73

Аудио
Идентификатор : 1
Формат : MPEG Audio
Версия формата : Version 1
Профиль формата : Layer 3
Идентификатор кодека : 55
Идентификатор кодека/Подсказка : MP3
Продолжительность : 1 ч. 47 м.
Вид битрейта : Постоянный
Битрейт : 128 Кбит/сек
Каналы : 2 канала
Частота : 48,0 КГц
Метод сжатия : С потерями
Размер потока : 98,5 Мбайт (13%)
Выравнивание : Соединение по промежуткам
Продолжительность промежутка : 42 мс. (1,00 видеокадр)
Время предзагрузки промежутка : 504 мс.
Библиотека кодирования : LAME3.99r
Настройки программы : -m s -V 4 -q 2 -lowpass 17 -b 128
piratbit.org



Скачать Спектральный анализ через торрент http://i2.imageban.ru/out/2016/12/11/d892c76c11ea2b258549941cbd962672.jpg Скачать фильм Спектральный анализ через торрент бесплантно в хорошем качестве Описание: В Молдавии уже не первый год идёт война. Последнее время в зоне боевых действий стали появляться невидимые невооружённым глазом ... 10 10 16
Info! Золотая раздача, скачанное не засчитывается.
Торрент: Зарегистрирован [2016-12-11 18:59] · скачан: 461 раз
Статус: T временная
Размер: 747 MB
Как cкачать? Как скачать Спектральный анализ через торрент | UTorrent

% Раздел Тема Автор DL S | L
T Фильмы (WEB-DL 720p, 1080p) [ 11.06 GB ] Спектральный / Спектральный анализ / Spectral [2016 WEBRip 1080p] MVO [@MUZOBOZ@] -Lexx- Скачать
1 | 0
T Релизы по Парсеру [Игры, Сериалы и Фильмы и другое...] [ 1.46 GB ] Спектральный / Спектральный анализ / Spectral [2016 WEBRip] MVO [@MUZOBOZ@] Sherif Скачать
2 | 0
T Фильмы 2016 [DVDrip, WEB-DLRip, HDrip] (DUB, MVO) [ 2.05 GB ] Спектральный / Спектральный анализ / Spectral [2016 WEBRip] MVO [@MUZOBOZ@] -Lexx- Скачать
2 | 0
T Фильмы (WEB-DL 720p, 1080p) [ 5.09 GB ] Спектральный / Спектральный анализ / Spectral [2016 WEBRip 720р] MVO [@MUZOBOZ@] -Lexx- Скачать
1 | 0

28-11-2019 20:33  

Отключить всю рекламу на сайте

    Дорогой пользователь! Огромная просьба, поблагодарите релизера, оцените раздачу и оставьте свои комментарий, если Вы скачали Спектральный анализ через торрент бесплатно! Внесите свою лепту в развитие PiratBit!
    Комментировать посты могут только пользователи прошедшие не сложную регистрацию
    Показать сообщения:    

    Спектральный анализ через торрент
    Скачать бесплатно Спектральный анализ
    Спектральный анализ скачать торрент
    Спектральный анализ смотреть онлайн
    Cкачать фильм Спектральный анализ бесплатно
    Спектральный анализ скачать торрент в хорошем качестве
    Спектральный анализ смотреть онлайн бесплатно в хорошем качестве


    Вы не можете начинать темы
    Вы не можете отвечать на сообщения
    Вы не можете редактировать свои сообщения
    Вы не можете удалять свои сообщения
    Вы не можете голосовать в опросах
    Вы не можете прикреплять файлы к сообщениям
    Вы можете скачивать файлы