1 сезон

3 сезон

iTunes

1

iTunes

DUB Netflix

iTunes

13

1 сезон

RePack

30

Deluxe

pack

Легкие деньги

ВАЖНО

ИГРА 18+

pack

RePack

MK11

RePack

jed

RePack

fifa19

RePack

RDR2

RePack

NEED FOR SPEED™ PAYBACK

4 сезон

9 сезон

Бесстыжие 9 сезон

Все сериалы

все сериалы на PB.wtf

RePack

FAR CRY 5

Anonymous, доброй ночи, мы не успеваем до 1 числа собрать деньги на оплату серверов, помогите нам пожалуйста в это трудное время. В качестве благодарности мы отключим Вам всю рекламу на сайте (укажите свой ник в строку Ваше имя)!

×
  
Magnet ссылка

Моя большая греческая свадьба 2 / My Big Fat Greek Wedding 2 (Кирк Джонс) [2016, мелодрама, комедия, семейный, HDRip] Дубляж - [Лицензия / iTunes] piratbit.org

Моя большая греческая свадьба 2 через торрент piratbit.org

Размер: 1.46 GB | Добавлен: 4 года 6 мес. назад | Торрент скачан:276 раз
Скачать  

12-12-2016 10:36 Моя большая греческая свадьба 2 Скачать торрент  

Моя большая греческая свадьба 2 / My Big Fat Greek Wedding 2

Год выпуска: 2016
Страна: США, Канада
Жанр: мелодрама, комедия, семейный

Продолжительность: 01:33:52
Перевод: Дубляж - [Лицензия / iTunes]
Режиссер: Кирк Джонс
В ролях:

Ниа Вардалос (Toula), Джон Корбетт (Ian), Майкл Константин (Gus), Лэйни Казан (Maria), Андреа Мартин (Aunt Voula), Джиа Каридес (Nikki), Джои Фатоне (Angelo), Елена Кампурис (Paris), Алекс Вулф (Bennett), Луис Мэндилор (Nick), Бесс Майслер (Mana-Yiayia), Брюс Грэй (Rodney Miller)
Описание:
Продолжение приключений греческого семейства Партокалос. У главных героев первого фильма, Тулы Портокалос и Йена Миллера, подросла дочь, которая ждет не дождется уйти из-под крыла родителей.
Рейтинг:

MPAA: PG-13 - Детям до 13 лет просмотр не желателен
Качество: HDRip
Формат: AVI
Видео: XviD, 720x304 (2.35:1), 1746 kbps, 23,976 fps, 0,333 bpp
Аудио: AC3 / 5.1 / 48 kHz / 384 kbps /
Релиз от: MegaPeer

General
Complete name : E:\My.Big.Fat.Greek.Wedding.2.2016.HDRip.1.46Gb.MegaPeer.avi
Format : AVI
Format/Info : Audio Video Interleave
File size : 1.46 GiB
Duration : 1 h 33 min
Overall bit rate : 2 228 kb/s

Video
ID : 0
Format : MPEG-4 Visual
Format profile : Advanced Simple@L5
Format settings, BVOP : 1
Format settings, QPel : No
Format settings, GMC : No warppoints
Format settings, Matrix : Custom
Codec ID : XVID
Codec ID/Hint : XviD
Duration : 1 h 33 min
Bit rate : 1 746 kb/s
Width : 720 pixels
Height : 304 pixels
Display aspect ratio : 2.35:1
Frame rate : 23.976 (24000/1001) FPS
Color space : YUV
Chroma subsampling : 4:2:0
Bit depth : 8 bits
Scan type : Progressive
Compression mode : Lossy
Bits/(Pixel*Frame) : 0.333
Stream size : 1.15 GiB (78%)
Writing library : XviD 73

Audio
ID : 1
Format : AC-3
Format/Info : Audio Coding 3
Mode extension : CM (complete main)
Format settings, Endianness : Big
Codec ID : 2000
Duration : 1 h 33 min
Bit rate mode : Constant
Bit rate : 384 kb/s
Channel(s) : 6 channels
Channel positions : Front: L C R, Side: L R, LFE
Sampling rate : 48.0 kHz
Frame rate : 31.250 FPS (1536 spf)
Compression mode : Lossy
Stream size : 258 MiB (17%)
Alignment : Aligned on interleaves
Title : iTunes
piratbit.org



Скачать Моя большая греческая свадьба 2 через торрент http://i6.imageban.ru/out/2016/12/12/11fa8baa7a5d374dbf4e62da85aa7a81.jpg Скачать фильм Моя большая греческая свадьба 2 через торрент бесплантно в хорошем качестве Описание: Продолжение приключений греческого семейства Партокалос. У главных героев первого фильма, Тулы Портокалос и Йена Миллера, ... 10 10 6
Торрент: Зарегистрирован [2016-12-12 10:36] · скачан: 276 раз
Статус: √ проверено
Размер: 1.46 GB
Как cкачать? Как скачать Моя большая греческая свадьба 2 через торрент | UTorrent

% Раздел Тема Автор DL S | L
R.G. Resident & PiratVoice - Фильмы, Видео [ 2.17 GB ] Моя большая греческая свадьба 2 / My Big Fat Greek Wedding 2 [2016 BDRip-AVC] - R.G.Resident schultz Скачать
1 | 0
Фильмы 2016 [DVDrip, WEB-DLRip, HDrip] (DUB, MVO) [ 748 MB ] Моя большая греческая свадьба 2 / My Big Fat Greek Wedding 2 [2016 HDRip] DUB bober100 Скачать
1 | 0
Фильмы [HD 720p, 1080p] (Хороший звук DUB, MVO) [ 7.42 GB ] Моя большая греческая свадьба 2 / My Big Fat Greek Wedding 2 [2016 BDRip 1080p] - -Lexx- Скачать
1 | 0

28-11-2019 20:33  

Отключить всю рекламу на сайте

    Дорогой пользователь! Огромная просьба, поблагодарите релизера, оцените раздачу и оставьте свои комментарий, если Вы скачали Моя большая греческая свадьба 2 через торрент бесплатно! Внесите свою лепту в развитие PiratBit!
    Комментировать посты могут только пользователи прошедшие не сложную регистрацию
    Показать сообщения:    

    Моя большая греческая свадьба 2 через торрент
    Скачать бесплатно Моя большая греческая свадьба 2
    Моя большая греческая свадьба 2 скачать торрент
    Моя большая греческая свадьба 2 смотреть онлайн
    Cкачать фильм Моя большая греческая свадьба 2 бесплатно
    Моя большая греческая свадьба 2 скачать торрент в хорошем качестве
    Моя большая греческая свадьба 2 смотреть онлайн бесплатно в хорошем качестве


    Вы не можете начинать темы
    Вы не можете отвечать на сообщения
    Вы не можете редактировать свои сообщения
    Вы не можете удалять свои сообщения
    Вы не можете голосовать в опросах
    Вы не можете прикреплять файлы к сообщениям
    Вы можете скачивать файлы