1 сезон

3 сезон

iTunes

1

iTunes

DUB Netflix

iTunes

13

1 сезон

RePack

30

Deluxe

pack

Легкие деньги

ВАЖНО

ИГРА 18+

pack

RePack

MK11

RePack

jed

RePack

fifa19

RePack

RDR2

RePack

NEED FOR SPEED™ PAYBACK

4 сезон

9 сезон

Бесстыжие 9 сезон

Все сериалы

все сериалы на PB.wtf

RePack

FAR CRY 5

Anonymous, добрый день, мы не успеваем до 1 числа собрать деньги на оплату серверов, помогите нам пожалуйста в это трудное время. В качестве благодарности мы отключим Вам всю рекламу на сайте (укажите свой ник в строку Ваше имя)!

×
  
Magnet ссылка

Хуже, чем ложь / Misconduct (Шинтаро Шимосава) [2016, триллер, драма, BDRip] Дубляж - [Лицензия / iTunes] piratbit.org

Хуже, чем ложь через торрент piratbit.org

Размер: 1.41 GB | Добавлен: 4 года 6 мес. назад | Торрент скачан:331 раз
Скачать  

15-12-2016 05:14 Хуже, чем ложь Скачать торрент  

Хуже, чем ложь / Misconduct

Год выпуска: 2016
Страна: США
Жанр: триллер, драма

Продолжительность: 01:45:54
Перевод: Дубляж - [Лицензия / iTunes]
Режиссер: Шинтаро Шимосава
В ролях:

Джош Дюамель (Ben Cahill), Энтони Хопкинс (Arthur Denning), Аль Пачино (Charles Abrams), Элис Ив (Charlotte Cahill), Малин Акерман (Emily Hynes), Ли Бён-хон (The Accountant), Джулия Стайлз (Jane Clemente), Глен Пауэлл (Doug Fields), Маркус Лайл Браун (Joe Bilson), Леа МакКендрик (Amy), Крис Маркетт (Giffords), Скай П. Маршалл (Hatty)
Описание:
Когда амбициозный молодой юрист берется за большое дело против влиятельного и безжалостного исполнительного директора крупной фармацевтической компании, он оказывается втянут в мир шантажа и коррупции.
Рейтинг:

MPAA: R - Лицам до 17 лет обязательно присутствие взрослого
Качество: BDRip
Формат: AVI
Видео: XviD, 720x304 (2.35:1), 1435 kbps, 23,976 fps, 0,274 bpp
Аудио: AC3 / 5.1 / 48 kHz / 384 kbps /
Релиз от: MegaPeer
General
Complete name : E:\Misconduct.2016.BDRip.1.41Gb.D.MegaPeer.avi
Format : AVI
Format/Info : Audio Video Interleave
File size : 1.41 GiB
Duration : 1 h 45 min
Overall bit rate : 1 904 kb/s

Video
ID : 0
Format : MPEG-4 Visual
Format profile : Advanced Simple@L5
Format settings, BVOP : 1
Format settings, QPel : No
Format settings, GMC : No warppoints
Format settings, Matrix : Custom
Codec ID : XVID
Codec ID/Hint : XviD
Duration : 1 h 45 min
Bit rate : 1 436 kb/s
Width : 720 pixels
Height : 304 pixels
Display aspect ratio : 2.35:1
Frame rate : 23.976 (24000/1001) FPS
Color space : YUV
Chroma subsampling : 4:2:0
Bit depth : 8 bits
Scan type : Progressive
Compression mode : Lossy
Bits/(Pixel*Frame) : 0.274
Stream size : 1.06 GiB (75%)
Writing library : XviD 73

Audio
ID : 1
Format : AC-3
Format/Info : Audio Coding 3
Mode extension : CM (complete main)
Format settings, Endianness : Big
Codec ID : 2000
Duration : 1 h 45 min
Bit rate mode : Constant
Bit rate : 384 kb/s
Channel(s) : 6 channels
Channel positions : Front: L C R, Side: L R, LFE
Sampling rate : 48.0 kHz
Frame rate : 31.250 FPS (1536 spf)
Compression mode : Lossy
Stream size : 291 MiB (20%)
Alignment : Aligned on interleaves
Title : iTunes
piratbit.org



Скачать Хуже, чем ложь через торрент http://i1.imageban.ru/out/2016/12/15/5693645eb77e9ae8635eb634cd96eb46.jpg Скачать фильм Хуже, чем ложь через торрент бесплантно в хорошем качестве Описание: Когда амбициозный молодой юрист берется за большое дело против влиятельного и безжалостного исполнительного директора крупной ... 6.8 10 5
Info! Золотая раздача, скачанное не засчитывается.
Торрент: Зарегистрирован [2016-12-15 05:14] · скачан: 331 раз
Статус: √ проверено
Размер: 1.41 GB
Как cкачать? Как скачать Хуже, чем ложь через торрент | UTorrent

% Раздел Тема Автор DL S | L
Фильмы [HD 720p, 1080p] (Хороший звук DUB, MVO) [ 9.24 GB ] Хуже чем ложь / Misconduct [2016 BDRip 1080p] - -Lexx- Скачать
1 | 0
R.G. Resident & PiratVoice - Фильмы, Видео [ 1.73 GB ] Хуже чем ложь / Misconduct [2016 BDRip-AVC] - R.G.Resident schultz Скачать
1 | 0
Фильмы 2016 [DVDrip, WEB-DLRip, HDrip] (DUB, MVO) [ 747 MB ] Хуже чем ложь / Misconduct [2016 HDRip by _Один_777] Dub () Один 777 Скачать
1 | 0
Фильмы 2016 [DVDrip, WEB-DLRip, HDrip] (DUB, MVO) [ 1.42 GB ] Хуже чем ложь / Misconduct [2016 BDRip] - Twi7ter Скачать
1 | 0

28-11-2019 20:33  

Отключить всю рекламу на сайте

15-12-2016 11:28 Хуже, чем ложь Скачать торрент  

такие великие актёры и такой низкий рейтинг.Как фильм напишите?piratbit.org



15-12-2016 14:53 Хуже, чем ложь Скачать торрент  

пара звезд + куча актеров из сериалов = ??? piratbit.org



    Дорогой пользователь! Огромная просьба, поблагодарите релизера, оцените раздачу и оставьте свои комментарий, если Вы скачали Хуже, чем ложь через торрент бесплатно! Внесите свою лепту в развитие PiratBit!
    Комментировать посты могут только пользователи прошедшие не сложную регистрацию
    Показать сообщения:    

    Хуже, чем ложь через торрент
    Скачать бесплатно Хуже, чем ложь
    Хуже, чем ложь скачать торрент
    Хуже, чем ложь смотреть онлайн
    Cкачать фильм Хуже, чем ложь бесплатно
    Хуже, чем ложь скачать торрент в хорошем качестве
    Хуже, чем ложь смотреть онлайн бесплатно в хорошем качестве


    Вы не можете начинать темы
    Вы не можете отвечать на сообщения
    Вы не можете редактировать свои сообщения
    Вы не можете удалять свои сообщения
    Вы не можете голосовать в опросах
    Вы не можете прикреплять файлы к сообщениям
    Вы можете скачивать файлы