1 сезон

3 сезон

iTunes

1

iTunes

DUB Netflix

iTunes

13

1 сезон

RePack

30

Deluxe

pack

Легкие деньги

ВАЖНО

ИГРА 18+

pack

RePack

MK11

RePack

jed

RePack

fifa19

RePack

RDR2

RePack

NEED FOR SPEED™ PAYBACK

4 сезон

9 сезон

Бесстыжие 9 сезон

Все сериалы

все сериалы на PB.wtf

RePack

FAR CRY 5

Anonymous, добрый вечер, мы не успеваем до 1 числа собрать деньги на оплату серверов, помогите нам пожалуйста в это трудное время. В качестве благодарности мы отключим Вам всю рекламу на сайте (укажите свой ник в строку Ваше имя)!

×
  
Magnet ссылка

Великолепная семерка / The Magnificent Seven (Антуан Фукуа) [2016 г., боевик, приключения, вестерн, BDRip-AVC] DUB [Лицензия RUS (BD CEE)] piratbit.org

Великолепная семерка через торрент piratbit.org

Размер: 1.46 GB | Добавлен: 4 года 6 мес. назад | Торрент скачан:404 раза
Скачать  

16-12-2016 09:53 Великолепная семерка Скачать торрент  

Великолепная семерка / The Magnificent Seven
Год выпуска: 2016
Страна: США
Жанр: боевик, приключения, вестерн
Продолжительность: 02:13:08
Перевод: Профессиональный (полное дублирование) [Лицензия RUS (BD CEE)]

Режиссер: Антуан Фукуа

rating

В ролях:

Дензел Вашингтон, Крис Пратт, Итан Хоук, Винсент Д'Онофрио, Ли Бён-хон, Мануэль Рульфо, Мартин Сенсмейер, Хейли Беннетт, Питер Сарсгаард, Люк Граймс

Описание:

Семеро отважных искателей приключений встают на защиту жителей маленького городка, угнетаемого бандой грабителей.

Качество: BDRip-AVC
Формат: MKV
Видео кодек: H.264
Аудио кодек: AC3

Видео: 720x302 (16:9), 23.976 fps, AVC MPEG-4 (x264), High@L4.1, 1379 Кbps avg, 0.265 bit/pixel
Аудио#1: 48 kHz, AC3 Dolby Digital, 2/0 (L,R) ch, ~192.00 kbps avg
Общее
Уникальный идентификатор : 238198341961698982866886855006673224964 (0xB33354FA97C1B86D8140B6DD6410C504)
Полное имя : D:The.Magnificent.Seven.2016.BDRip(AVC).mkv
Формат : Matroska
Версия формата : Version 2
Размер файла : 1,46 Гбайт
Продолжительность : 2 ч. 12 м.
Общий поток : 1572 Кбит/сек
Название фильма : The.Magnificent.Seven.2016.BDRip(AVC) #TorpedoUK#
Дата кодирования : UTC 2016-12-16 02:33:21
Программа кодирования : mkvmerge v7.8.0 ('River Man') 32bit built on Apr 3 2015 12:11:22
Библиотека кодирования : libebml v1.3.1 + libmatroska v1.4.2

Видео
Идентификатор : 1
Формат : AVC
Формат/Информация : Advanced Video Codec
Профиль формата : High@L4.1
Параметр CABAC формата : Да
Параметр ReFrames формата : 10 кадров
Идентификатор кодека : V_MPEG4/ISO/AVC
Продолжительность : 2 ч. 12 м.
Битрейт : 1379 Кбит/сек
Ширина : 720 пикселей
Высота : 302 пикселя
Соотношение сторон : 2,40:1
Режим частоты кадров : Постоянный
Частота кадров : 23,976 кадра/сек
Цветовое пространство : YUV
Субдискретизация насыщенности : 4:2:0
Битовая глубина : 8 бит
Тип развёртки : Прогрессивная
Бит/(Пиксели*Кадры) : 0.265
Размер потока : 1,25 Гбайт (86%)
Библиотека кодирования : x264 core 146 r2538 121396c
Настройки программы : cabac=1 / ref=10 / deblock=1:-3:-3 / analyse=0x3:0x133 / me=umh / subme=11 / psy=1 / psy_rd=1.00:0.03 / mixed_ref=1 / me_range=48 / chroma_me=1 / trellis=2 / 8x8dct=1 / cqm=0 / deadzone=21,11 / fast_pskip=0 / chroma_qp_offset=-3 / threads=6 / lookahead_threads=1 / sliced_threads=0 / nr=0 / decimate=0 / interlaced=0 / bluray_compat=0 / constrained_intra=0 / bframes=10 / b_pyramid=2 / b_adapt=2 / b_bias=0 / direct=3 / weightb=1 / open_gop=0 / weightp=2 / keyint=240 / keyint_min=23 / scenecut=40 / intra_refresh=0 / rc_lookahead=40 / rc=2pass / mbtree=0 / bitrate=1379 / ratetol=1.0 / qcomp=0.60 / qpmin=0 / qpmax=69 / qpstep=4 / cplxblur=20.0 / qblur=0.5 / vbv_maxrate=50000 / vbv_bufsize=62500 / nal_hrd=none / filler=0 / ip_ratio=1.40 / pb_ratio=1.30 / aq=1:1.00
Default : Да
Forced : Нет

Аудио
Идентификатор : 2
Формат : AC-3
Формат/Информация : Audio Coding 3
Расширение режима : CM (complete main)
Параметр Endianness формата : Big
Идентификатор кодека : A_AC3
Продолжительность : 2 ч. 12 м.
Вид битрейта : Постоянный
Битрейт : 192 Кбит/сек
Каналы : 2 канала
Расположение каналов : Front: L R
Частота : 48,0 КГц
Битовая глубина : 16 бит
Метод сжатия : С потерями
Размер потока : 182 Мбайт (12%)
Default : Да
Forced : Нет

Текст
Идентификатор : 3
Формат : UTF-8
Идентификатор кодека : S_TEXT/UTF8
Идентификатор кодека/Информация : UTF-8 Plain Text
Заголовок : Full
Язык : Russian
Default : Нет
Forced : Нет

Меню
00:00:00.000 : en:Chapter 01
00:04:53.710 : en:Chapter 02
00:11:28.396 : en:Chapter 03
00:18:12.591 : en:Chapter 04
00:25:17.849 : en:Chapter 05
00:31:55.955 : en:Chapter 06
00:36:53.794 : en:Chapter 07
00:42:05.523 : en:Chapter 08
00:50:23.812 : en:Chapter 09
00:59:57.760 : en:Chapter 10
01:06:49.630 : en:Chapter 11
01:16:08.355 : en:Chapter 12
01:23:25.792 : en:Chapter 13
01:34:06.974 : en:Chapter 14
01:44:19.711 : en:Chapter 15
01:54:47.297 : en:Chapter 16
скриншот   скриншот   скриншот   скриншот  
piratbit.org



Скачать Великолепная семерка через торрент http://s018.radikal.ru/i525/1612/95/f8d3dd40f924.png Скачать фильм Великолепная семерка через торрент бесплантно в хорошем качестве Описание: Семеро отважных искателей приключений встают на защиту жителей маленького городка, угнетаемого бандой ... 9.8 10 13
Торрент: Зарегистрирован [2016-12-16 09:53] · скачан: 404 раз
Статус: √ проверено
Размер: 1.46 GB
Как cкачать? Как скачать Великолепная семерка через торрент | UTorrent

% Раздел Тема Автор DL S | L
Ultra HD (UHD: 2K, 4K, 8K) — видео сверхвысокой чёткости [ 55.46 GB ] Великолепная семерка / The Magnificent Seven [2016 UHD Blu-ray EUR 2160p] sheker187 Скачать
3 | 0
Фильмы (HD 720p, 1080p) (48-60 fps) [ 6.98 GB ] Великолепная семерка / The Magnificent Seven [2016 BDRip 720p 60 fps от еnvy / NNNB] DUB еnvy Скачать
7 | 1
Ultra HD (UHD: 2K, 4K, 8K) — видео сверхвысокой чёткости [ 54.9 GB ] Великолепная семерка / The Magnificent Seven [2016 UHD BDRemux 2160p] 4xAVO+DUB [ Blu-Ray CEE] bober100 Скачать
1 | 0
Фильмы 2016 [DVDrip, WEB-DLRip, HDrip] (DUB, MVO) [ 2.18 GB ] Великолепная семерка / The Magnificent Seven [2016 BDRip] - [] Twi7ter Скачать
1 | 0
Фильмы [HD 720p, 1080p] (Хороший звук DUB, MVO) [ 16.18 GB ] Великолепная семерка / The Magnificent Seven [1960 BDRip 1080p] 2x DUB + MVO -Lexx- Скачать
1 | 0
Фильмы (Blu-ray, BD-Remux, HDDVD) [ 43.84 GB ] Великолепная семерка / The Magnificent Seven [1960 Blu-Ray CEE 1080p] Russian Mafia Скачать
1 | 0
Ultra HD (UHD: 2K, 4K, 8K) — видео сверхвысокой чёткости [ 56.51 GB ] Великолепная семерка / The Magnificent Seven [2016 UHDWEBRip 2160p] - [] sheker187 Скачать
1 | 0

28-11-2019 20:33  

Отключить всю рекламу на сайте

16-12-2016 15:41 Великолепная семерка Скачать торрент  

че со звуком не поймуpiratbit.org



16-12-2016 16:13 Великолепная семерка Скачать торрент  

вантей, у меня все норм!piratbit.org



    Дорогой пользователь! Огромная просьба, поблагодарите релизера, оцените раздачу и оставьте свои комментарий, если Вы скачали Великолепная семерка через торрент бесплатно! Внесите свою лепту в развитие PiratBit!
    Комментировать посты могут только пользователи прошедшие не сложную регистрацию
    Показать сообщения:    

    Великолепная семерка через торрент
    Скачать бесплатно Великолепная семерка
    Великолепная семерка скачать торрент
    Великолепная семерка смотреть онлайн
    Cкачать фильм Великолепная семерка бесплатно
    Великолепная семерка скачать торрент в хорошем качестве
    Великолепная семерка смотреть онлайн бесплатно в хорошем качестве


    Вы не можете начинать темы
    Вы не можете отвечать на сообщения
    Вы не можете редактировать свои сообщения
    Вы не можете удалять свои сообщения
    Вы не можете голосовать в опросах
    Вы не можете прикреплять файлы к сообщениям
    Вы можете скачивать файлы