Доктор Стрэндж

Лицензия

Добыча

Дубляж

Уэнсдэй

1 сезон

Тор

Дубляж

В эфире

Дубляж

Там, где раки поют

MVO

Властелин колец

1 сезон

Deluxe

pack

Рекомендуем

30

Пиратка

ВАЖНО

ВАЖНО

Ghostwire

Пиратка

jed

RePack

nioh2

RePack

RDR2

RePack

NEED FOR SPEED™ PAYBACK

RePack

скачать торрент

Кинопоиск HD

Острые козырьки 6 сезон

6 сезон

FAR CRY 6

RePack

скачать торрент

Лицензия

скачать торрент

MVO

1

1 сезон

скачать торрент

1 сезон

скачать торрент

Лицензия

  

Этажом ниже / The Ones Below (Дэвид Фарр) [2015, триллер, BDRip 720p ] VO

Этажом ниже через торрент piratbit.org

Размер: 3.7 GB | Добавлен: 5 лет 11 мес. назад | Торрент скачан:63 раза
Смотреть онлайн | Скачать   

17-12-2016 14:38 Этажом ниже Скачать торрент  

Название: Этажом ниже
Оригинальное название: The Ones Below
Год выпуска: 2015
Страна: Великобритания
Жанр: триллер
Продолжительность: 01:26:15
Перевод: любительский одноголосый

Режиссёр: Дэвид Фарр

В ролях: Клеманс Поэзи, Дэвид Моррисси, Стивен Кэмпбелл Мур, Лаура Бирн, Дебора Файндлей, Наташа Алдерслэйд, Лайла Ай, Фрэнсис Эшман, Алекс Эйвери, Грэйс Калдер

Описание: Молодая семья переезжает в новую квартиру. Жена вот-вот уже должна родить их первенца. Однажды, встретив соседку из нижнего этажа, женщина завязывает дружбу по интересам, поскольку соседка вынашивает ребёнка примерно на таком же сроке. Но несчастный случай оставляет родителей нижнего этажа без их ребёнка. И с тех пор бытовая жизнь между соседями начинает приобретать некоторые странности...



Качество: BDRip 720p
Формат: MKV
Видео: MPEG-4 AVC, 5492 Кбит/с, 1280x690, 23,976 кадра/с
Аудио 1: русский, AC3, 192 kbps, 2 ch, 48 kHz [любительский одноголосый, datynet]
Аудио 2: английский, AC3, 448 kbps, 6 ch, 48 kHz [оригинал]
Субтитры 1: русские
Субтитры 2: английские
Имеются неименованные главы/чаптеры.
Общее
Уникальный идентификатор : 212982730389729155810039861541323834751 (0xA03AFB57DDF0817B9C25B5EC4116857F)
Полное имя : D:\Video\Этажом ниже.2015.BDRip.720p by msltel.mkv
Формат : Matroska
Версия формата : Version 4 / Version 2
Размер файла : 3,70 Гбайт
Продолжительность : 1 ч. 26 м.
Общий поток : 6134 Кбит/сек
Название фильма : Rip by msltel
Дата кодирования : UTC 2016-12-17 11:23:09
Программа кодирования : mkvmerge v8.2.0 ('World of Adventure') 64bit
Библиотека кодирования : libebml v1.3.1 + libmatroska v1.4.2

Видео
Идентификатор : 1
Формат : AVC
Формат/Информация : Advanced Video Codec
Профиль формата : High@L4.1
Параметр CABAC формата : Да
Параметр ReFrames формата : 9 кадров
Идентификатор кодека : V_MPEG4/ISO/AVC
Продолжительность : 1 ч. 26 м.
Битрейт : 5492 Кбит/сек
Ширина : 1280 пикселей
Высота : 690 пикселей
Соотношение сторон : 1,85:1
Режим частоты кадров : Постоянный
Частота кадров : 23,976 (24000/1001) кадра/сек
Цветовое пространство : YUV
Субдискретизация насыщенности : 4:2:0
Битовая глубина : 8 бит
Тип развёртки : Прогрессивная
Бит/(Пиксели*Кадры) : 0.259
Размер потока : 3,31 Гбайт (90%)
Библиотека кодирования : x264 core 146 r2538 121396c
Настройки программы : cabac=1 / ref=9 / deblock=1:-1:-1 / analyse=0x3:0x113 / me=umh / subme=9 / psy=1 / psy_rd=1.00:0.15 / mixed_ref=1 / me_range=32 / chroma_me=1 / trellis=1 / 8x8dct=1 / cqm=0 / deadzone=21,11 / fast_pskip=0 / chroma_qp_offset=-3 / threads=6 / lookahead_threads=1 / sliced_threads=0 / nr=0 / decimate=1 / interlaced=0 / bluray_compat=0 / constrained_intra=0 / bframes=11 / b_pyramid=2 / b_adapt=2 / b_bias=0 / direct=1 / weightb=0 / open_gop=0 / weightp=2 / keyint=230 / keyint_min=23 / scenecut=40 / intra_refresh=0 / rc_lookahead=40 / rc=crf / mbtree=0 / crf=17.5 / qcomp=0.60 / qpmin=0 / qpmax=69 / qpstep=4 / vbv_maxrate=50000 / vbv_bufsize=62500 / crf_max=0.0 / nal_hrd=none / filler=0 / ip_ratio=1.40 / pb_ratio=1.30 / aq=1:1.00
Язык : English
Default : Да
Forced : Нет

Аудио #1
Идентификатор : 2
Формат : AC-3
Формат/Информация : Audio Coding 3
Расширение режима : CM (complete main)
Параметр Endianness формата : Big
Идентификатор кодека : A_AC3
Продолжительность : 1 ч. 26 м.
Вид битрейта : Постоянный
Битрейт : 192 Кбит/сек
Каналы : 2 канала
Расположение каналов : Front: L R
Частота : 48,0 КГц
Частота кадров : 31,250 кадров/сек (1536 spf)
Метод сжатия : С потерями
Размер потока : 118 Мбайт (3%)
Заголовок : любительский одноголосый, datynet
Язык : Russian
Default : Да
Forced : Нет

Аудио #2
Идентификатор : 3
Формат : AC-3
Формат/Информация : Audio Coding 3
Расширение режима : CM (complete main)
Параметр Endianness формата : Big
Идентификатор кодека : A_AC3
Продолжительность : 1 ч. 26 м.
Вид битрейта : Постоянный
Битрейт : 448 Кбит/сек
Каналы : 6 каналов
Расположение каналов : Front: L C R, Side: L R, LFE
Частота : 48,0 КГц
Частота кадров : 31,250 кадров/сек (1536 spf)
Метод сжатия : С потерями
Размер потока : 276 Мбайт (7%)
Заголовок : original
Язык : English
Default : Нет
Forced : Нет

Текст #1
Идентификатор : 4
Формат : UTF-8
Идентификатор кодека : S_TEXT/UTF8
Идентификатор кодека/Информация : UTF-8 Plain Text
Продолжительность : 1 ч. 19 м.
Битрейт : 63 бит/сек
Count of elements : 748
Размер потока : 37,3 Кбайт (0%)
Заголовок : русские
Язык : Russian
Default : Нет
Forced : Нет

Текст #2
Идентификатор : 5
Формат : UTF-8
Идентификатор кодека : S_TEXT/UTF8
Идентификатор кодека/Информация : UTF-8 Plain Text
Продолжительность : 1 ч. 20 м.
Битрейт : 42 бит/сек
Count of elements : 847
Размер потока : 25,1 Кбайт (0%)
Заголовок : английские
Язык : English
Default : Нет
Forced : Нет

Меню
00:00:00.000 : en:00:00:00.000
00:07:42.754 : en:00:07:42.754
00:13:35.064 : en:00:13:35.064
00:23:48.302 : en:00:23:48.302
00:29:28.976 : en:00:29:28.976
00:36:43.952 : en:00:36:43.952
00:41:08.174 : en:00:41:08.174
00:49:04.275 : en:00:49:04.275
00:57:59.476 : en:00:57:59.476
01:08:11.963 : en:01:08:11.963
01:12:34.225 : en:01:12:34.225
01:21:36.850 : en:01:21:36.850



Скачать Этажом ниже через торрент http://s018.radikal.ru/i508/1612/a2/3731bb2cc780.jpg Скачать, смотреть онлайн Этажом ниже бесплантно в хорошем качестве Описание: Молодая семья переезжает в новую квартиру. Жена вот-вот уже должна родить их первенца. Однажды, встретив соседку из нижнего ... 10 10 3
Info! Золотая раздача, скачанное не засчитывается.
Торрент: Зарегистрирован [2016-12-17 14:38] · скачан: 63 раз
Статус: √ проверено
Размер: 3.7 GB
Как cкачать? Как скачать Этажом ниже через торрент | UTorrent

% Раздел Тема Автор DL S | L
Фильмы [HD 720p, 1080p] (Звук Cam, VO, DVO) [ 10.28 GB ] Этажом ниже / The Ones Below | | 1080p msltel Скачать
1 | 0
Фильмы 2015 [DVDrip, WEB-DLRip, HDrip] [ 1.45 GB ] Этажом ниже / The Ones Below | | BDRip koenig Скачать
2 | 0

28-11-2019 20:33  


Отключить вcю реклaмy на сайте, в т.ч. и в плеере онлайн просмотра!

    Дорогой пользователь! Огромная просьба, поблагодарите релизера, оцените раздачу и оставьте свои комментарий, если Вы скачали Этажом ниже через торрент бесплатно!!
    Комментировать посты могут только пользователи прошедшие не сложную регистрацию
    Показать сообщения:    


    Этажом ниже через торрент
    Скачать бесплатно Этажом ниже
    Этажом ниже скачать торрент
    Этажом ниже смотреть онлайн
    Cкачать фильм Этажом ниже бесплатно
    Этажом ниже скачать торрент в хорошем качестве
    Этажом ниже смотреть онлайн бесплатно в хорошем качестве
    Вы не можете начинать темы
    Вы не можете отвечать на сообщения
    Вы не можете редактировать свои сообщения
    Вы не можете удалять свои сообщения
    Вы не можете голосовать в опросах
    Вы не можете прикреплять файлы к сообщениям
    Вы можете скачивать файлы
    Этажом ниже / The Ones Below [2015, триллер, BDRip 720p ] VO смотреть онлайн, скачать торрент picoco.icu