1 сезон

3 сезон

iTunes

1

iTunes

DUB Netflix

iTunes

13

1 сезон

RePack

30

Deluxe

pack

Легкие деньги

ВАЖНО

ИГРА 18+

pack

RePack

MK11

RePack

jed

RePack

fifa19

RePack

RDR2

RePack

NEED FOR SPEED™ PAYBACK

4 сезон

9 сезон

Бесстыжие 9 сезон

Все сериалы

все сериалы на PB.wtf

RePack

FAR CRY 5

Anonymous, доброе утро, мы не успеваем до 1 числа собрать деньги на оплату серверов, помогите нам пожалуйста в это трудное время. В качестве благодарности мы отключим Вам всю рекламу на сайте (укажите свой ник в строку Ваше имя)!

×
  
Magnet ссылка

В конце туннеля / Al final del túnel (Родриго Гранде / Rodrigo Grande) [2016, Аргентина, Испания, Триллер, криминал, HDRip by _Один_777] MVO (@MUZOBOZ@) piratbit.org

В конце туннеля через торрент piratbit.org

Размер: 748 MB | Добавлен: 4 года 6 мес. назад | Торрент скачан:541 раз
Скачать  

18-12-2016 10:04 В конце туннеля Скачать торрент  

В конце туннеля / Al final del túnel

Год выпуска: 2016
Страна: Аргентина, Испания
Жанр: Триллер, криминал
Продолжительность: 02:00:23
Перевод: Любительский (многоголосый закадровый) @MUZOBOZ@
Cубтитры: нет

Режиссер: Родриго Гранде / Rodrigo Grande

В ролях: Леонардо Сбараглиа, Пабло Эчарри, Клара Лаго, Дэниел Моралес Комини, Уолтер Донато, Лора Фаэнца, Серджо Феррейро, Факундо Науэль Хименес, Хавьер Годино, Федерико Луппи...

Описание: Группа грабителей пытается сорвать большой куш, построив подземный туннель, ведущий прямиком к банку. Происходящее привлекает нежелательное внимание Хоакина, парализованного человека, сидящего в инвалидном кресле в соседнем доме. Но он, случайно услышав звук работ под своим подвалом, совсем не торопится разоблачить гангстеров, так как считает, что появился его собственный шанс..

Доп. информация: БЕЗ РЕКЛАМЫ


Сэмпл: http://sendfile.su/1291473


Качество видео: HDRip
Формат видео: AVI
Видео кодек: XviD
Аудио кодек: МР3
Видео: 640x272 (2.35:1), 23.976 fps, XviD build 73 ~731 kbps avg, 0.17 bit/pixel
Аудио: 48 kHz, MPEG Layer 3, 2 ch, ~128.00 kbps avg
Общее
Полное имя : F:\V.konce.tunnelja.2016.HDRip.740.[Один 777].avi
Формат : AVI
Формат/Информация : Audio Video Interleave
Размер файла : 748 Мбайт
Продолжительность : 2 ч. 0 м.
Общий поток : 869 Кбит/сек
Программа кодирования : VirtualDubMod 1.5.10.3 | www.virtualdub-fr.org || (build 2550/release)
Библиотека кодирования : VirtualDubMod build 2550/release

Видео
Идентификатор : 0
Формат : MPEG-4 Visual
Профиль формата : Advanced Simple@L5
Параметр BVOP формата : 1
Параметр QPel формата : Нет
Параметр GMC формата : Без точки перехода
Параметр матрицы формата : Default (H.263)
Идентификатор кодека : XVID
Идентификатор кодека/Подсказка : XviD
Продолжительность : 2 ч. 0 м.
Битрейт : 732 Кбит/сек
Ширина : 640 пикселей
Высота : 272 пикселя
Соотношение сторон : 2,35:1
Частота кадров : 23,976 (23976/1000) кадра/сек
Цветовое пространство : YUV
Субдискретизация насыщенности : 4:2:0
Битовая глубина : 8 бит
Тип развёртки : Прогрессивная
Метод сжатия : С потерями
Бит/(Пиксели*Кадры) : 0.175
Размер потока : 630 Мбайт (84%)
Библиотека кодирования : XviD 73

Аудио
Идентификатор : 1
Формат : MPEG Audio
Версия формата : Version 1
Профиль формата : Layer 3
Идентификатор кодека : 55
Идентификатор кодека/Подсказка : MP3
Продолжительность : 2 ч. 0 м.
Вид битрейта : Постоянный
Битрейт : 128 Кбит/сек
Каналы : 2 канала
Частота : 48,0 КГц
Метод сжатия : С потерями
Размер потока : 110 Мбайт (15%)
Выравнивание : Соединение по промежуткам
Продолжительность промежутка : 42 мс. (1,00 видеокадр)
Время предзагрузки промежутка : 504 мс.
Библиотека кодирования : LAME3.99r
Настройки программы : -m s -V 4 -q 2 -lowpass 17 -b 128
piratbit.org



Скачать В конце туннеля через торрент http://i2.imageban.ru/out/2016/12/18/fef68f8686eb99076ebe5687c75886d4.jpg Скачать фильм В конце туннеля через торрент бесплантно в хорошем качестве Описание: Группа грабителей пытается сорвать большой куш, построив подземный туннель, ведущий прямиком к банку. Происходящее привлекает ... 7.9 10 12
Info! Золотая раздача, скачанное не засчитывается.
Торрент: Зарегистрирован [2016-12-18 10:04] · скачан: 541 раз
Статус: T временная
Размер: 748 MB
Как cкачать? Как скачать В конце туннеля через торрент | UTorrent

28-11-2019 20:33  

Отключить всю рекламу на сайте

18-12-2016 19:38 В конце туннеля Скачать торрент  

Рейтинг завышен, я бы дал 5piratbit.org



30-01-2017 03:59 В конце туннеля Скачать торрент  

Инвалид убирает бомбу и с помощью стамески делает отверстие в полу банка, там видимо плитку прямо на землю клали. А заряда бомбы хватило только на то, что бы сделать трещену в трубе.

А так посмотреть можно.piratbit.org



    Дорогой пользователь! Огромная просьба, поблагодарите релизера, оцените раздачу и оставьте свои комментарий, если Вы скачали В конце туннеля через торрент бесплатно! Внесите свою лепту в развитие PiratBit!
    Комментировать посты могут только пользователи прошедшие не сложную регистрацию
    Показать сообщения:    

    В конце туннеля через торрент
    Скачать бесплатно В конце туннеля
    В конце туннеля скачать торрент
    В конце туннеля смотреть онлайн
    Cкачать фильм В конце туннеля бесплатно
    В конце туннеля скачать торрент в хорошем качестве
    В конце туннеля смотреть онлайн бесплатно в хорошем качестве


    Вы не можете начинать темы
    Вы не можете отвечать на сообщения
    Вы не можете редактировать свои сообщения
    Вы не можете удалять свои сообщения
    Вы не можете голосовать в опросах
    Вы не можете прикреплять файлы к сообщениям
    Вы можете скачивать файлы