1 сезон

3 сезон

iTunes

1

iTunes

DUB Netflix

iTunes

13

1 сезон

RePack

30

Deluxe

pack

Легкие деньги

ВАЖНО

ИГРА 18+

pack

RePack

MK11

RePack

jed

RePack

fifa19

RePack

RDR2

RePack

NEED FOR SPEED™ PAYBACK

4 сезон

9 сезон

Бесстыжие 9 сезон

Все сериалы

все сериалы на PB.wtf

RePack

FAR CRY 5

Anonymous, добрый день, мы не успеваем до 1 числа собрать деньги на оплату серверов, помогите нам пожалуйста в это трудное время. В качестве благодарности мы отключим Вам всю рекламу на сайте (укажите свой ник в строку Ваше имя)!

×
  
Magnet ссылка

Выбор / The Choice (Росс Кац) [2016 г., драма, мелодрама, BDRip-AVC] DUB [Лицензия] piratbit.org

Выбор через торрент piratbit.org

Размер: 2.11 GB | Добавлен: 4 года 5 мес. назад | Торрент скачан:233 раза
Скачать  

22-12-2016 06:18 Выбор Скачать торрент  

Выбор / The Choice
Год выпуска: 2016
Страна: США
Жанр: драма, мелодрама
Продолжительность: 01:51:06
Перевод: Профессиональный (полное дублирование) лицензия
Субтитры: английские

Режиссер: Росс Кац

rating

В ролях:

Бенджамин Уокер, Тереза Палмер, Мэгги Грэйс, Александра Даддарио, Том Уилкинсон, Том Уэллинг, Джесси Бойд, Брэд Джеймс, Нори Виктория, Анна Энгер

Описание:

Любовь? Серьезные отношения? Ответственность? Семья? Закоренелый холостяк Тревис Паркер считает, что все это не для него. У него есть отличная работа и верные друзья. Он увлекается охотой, рыбалкой, занимается экстремальными видами спорта - и избегает серьезных отношений. Но не родился еще на свет человек, которому удалось бы уйти от настоящей любви... Когда в доме по соседству поселяется тихая, замкнутая Габи, жизнь Тревиса меняется.

Качество: BDRip-AVC
Формат: MKV
Видео кодек: H.264
Аудио кодек: AC3

Видео: 1024x424 (2.40:1), 23.976 fps, AVC MPEG-4 (H.264), High@L4.1 ~1890 kbps, 0.182 bit/pixel
Аудио#1: Русский: 48 kHz, AC3 Dolby Digital, 3/2 (L,C,R,l,r) + LFE ch, ~384 kbps [Профессиональный (полное дублирование)]
Аудио#2: Английский: 48 kHz, AC3 Dolby Digital, 3/2 (L,C,R,l,r) + LFE ch, ~448 kbps [Оригинал]
General
Unique ID : 181076319786718472727330994898066379370 (0x883A07D8A819B63BAF569CC59BB2926A)
Complete name : D:Natalianew12.2016The.Choice.2016.D.BDRip.AVC.ExKinoRay.mkv
Format : Matroska
Format version : Version 2
File size : 2.11 GiB
Duration : 1 h 51 min
Overall bit rate : 2 723 kb/s
Movie name : Выбор 2016 from ExKinoRay
Encoded date : UTC 2016-12-21 19:09:07
Writing application : mkvmerge v7.6.0 ('Garden of Dreams') 32bit built on Feb 11 2015 00:18:47
Writing library : libebml v1.3.1 + libmatroska v1.4.2

Video
ID : 1
Format : AVC
Format/Info : Advanced Video Codec
Format profile : High@L4.1
Format settings, CABAC : Yes
Format settings, ReFrames : 14 frames
Codec ID : V_MPEG4/ISO/AVC
Duration : 1 h 51 min
Bit rate : 1 890 kb/s
Width : 1 024 pixels
Height : 424 pixels
Display aspect ratio : 2.40:1
Frame rate mode : Constant
Frame rate : 23.976 (24000/1001) FPS
Color space : YUV
Chroma subsampling : 4:2:0
Bit depth : 8 bits
Scan type : Progressive
Bits/(Pixel*Frame) : 0.182
Stream size : 1.43 GiB (67%)
Title : Enigma
Writing library : x264 core 144 r2525 40bb568
Encoding settings : cabac=1 / ref=14 / deblock=1:-3:-3 / analyse=0x3:0x113 / me=umh / subme=10 / psy=1 / psy_rd=1.05:0.10 / mixed_ref=1 / me_range=32 / chroma_me=1 / trellis=2 / 8x8dct=1 / cqm=0 / deadzone=21,11 / fast_pskip=1 / chroma_qp_offset=-3 / threads=12 / lookahead_threads=3 / sliced_threads=0 / nr=0 / decimate=1 / interlaced=0 / bluray_compat=0 / constrained_intra=0 / bframes=12 / b_pyramid=2 / b_adapt=2 / b_bias=0 / direct=3 / weightb=1 / open_gop=0 / weightp=2 / keyint=240 / keyint_min=23 / scenecut=40 / intra_refresh=0 / rc_lookahead=40 / rc=2pass / mbtree=0 / bitrate=1890 / ratetol=1.0 / qcomp=0.65 / qpmin=0 / qpmax=51 / qpstep=4 / cplxblur=20.0 / qblur=0.5 / vbv_maxrate=50000 / vbv_bufsize=62500 / nal_hrd=none / filler=0 / ip_ratio=1.40 / pb_ratio=1.30 / aq=3:0.80
Language : English
Default : Yes
Forced : No
Color range : Limited
Color primaries : BT.709
Transfer characteristics : BT.709
Matrix coefficients : BT.709

Audio #1
ID : 2
Format : AC-3
Format/Info : Audio Coding 3
Mode extension : CM (complete main)
Format settings, Endianness : Big
Codec ID : A_AC3
Duration : 1 h 51 min
Bit rate mode : Constant
Bit rate : 384 kb/s
Channel(s) : 6 channels
Channel positions : Front: L C R, Side: L R, LFE
Sampling rate : 48.0 kHz
Frame rate : 31.250 FPS (1536 spf)
Compression mode : Lossy
Stream size : 305 MiB (14%)
Title : Dub (Лицензия)
Language : Russian
Default : Yes
Forced : No

Audio #2
ID : 3
Format : AC-3
Format/Info : Audio Coding 3
Mode extension : CM (complete main)
Format settings, Endianness : Big
Codec ID : A_AC3
Duration : 1 h 51 min
Bit rate mode : Constant
Bit rate : 448 kb/s
Channel(s) : 6 channels
Channel positions : Front: L C R, Side: L R, LFE
Sampling rate : 48.0 kHz
Frame rate : 31.250 FPS (1536 spf)
Compression mode : Lossy
Stream size : 356 MiB (16%)
Language : English
Default : No
Forced : No

Text
ID : 4
Format : UTF-8
Codec ID : S_TEXT/UTF8
Codec ID/Info : UTF-8 Plain Text
Language : English
Default : No
Forced : No

Menu
00:00:00.000 : en:Chapter 01
00:04:37.110 : en:Chapter 02
00:12:09.353 : en:Chapter 03
00:20:26.975 : en:Chapter 04
00:27:49.042 : en:Chapter 05
00:34:24.395 : en:Chapter 06
00:40:54.076 : en:Chapter 07
00:47:25.050 : en:Chapter 08
00:54:27.639 : en:Chapter 09
00:58:57.992 : en:Chapter 10
01:06:32.238 : en:Chapter 11
01:14:04.106 : en:Chapter 12
01:20:10.013 : en:Chapter 13
01:28:19.043 : en:Chapter 14
01:35:19.547 : en:Chapter 15
01:40:33.068 : en:Chapter 16
скриншот   скриншот   скриншот   скриншот  
piratbit.org



Скачать Выбор через торрент http://s45.radikal.ru/i109/1612/be/def4305418f8.jpg Скачать фильм Выбор через торрент бесплантно в хорошем качестве Описание: Любовь? Серьезные отношения? Ответственность? Семья? Закоренелый холостяк Тревис Паркер считает, что все это не для него. У него ... 10 10 6
Торрент: Зарегистрирован [2016-12-22 06:18] · скачан: 233 раз
Статус: √ проверено
Размер: 2.11 GB
Как cкачать? Как скачать Выбор через торрент | UTorrent

% Раздел Тема Автор DL S | L
Классические порно фильмы [ 1.82 GB ] Народный Выбор: Зал Славы / The Peoples Choice: Hall Of Fame Babes [1980 Classic Compilation DVDRip] Леонид Ильич Скачать
1 | 0
Порно фильмы с сюжетом [ 1.25 GB ] Выбор Матушки / A Mother's Choice [2017 Feature Family Roleplay Affairs & Love Triangles WEB-DL 544p Оригинальный] nn99nn Скачать
1 | 0
Фильмы [HD 720p, 1080p] (Хороший звук DUB, MVO) [ 5.1 GB ] Выбор / The Choice [2016 BDRip 720p] - [] bober100 Скачать
1 | 0
Фильмы [HD 720p, 1080p] (Хороший звук DUB, MVO) [ 10.96 GB ] Выбор / The Choice [2016 BDRip 1080p] - [] -Lexx- Скачать
1 | 0
Фильмы 2016 [DVDrip, WEB-DLRip, HDrip] (DUB, MVO) [ 1.45 GB ] Выбор / The Choice [2016 HDRip] - [] -Lexx- Скачать
2 | 0
Документальные фильмы и телепередачи [ 4.63 GB ] Выбор за нами / The Choice Is Ours [2015 Документальный WEBRip 1080p ] Quatron Скачать
1 | 0
Фильмы без перевода [ 3.32 GB ] Выбор / The Choice [2016 WEB-DL 720p] [ENG] killermax2013 Скачать
1 | 0

28-11-2019 20:33  

Отключить всю рекламу на сайте

    Дорогой пользователь! Огромная просьба, поблагодарите релизера, оцените раздачу и оставьте свои комментарий, если Вы скачали Выбор через торрент бесплатно! Внесите свою лепту в развитие PiratBit!
    Комментировать посты могут только пользователи прошедшие не сложную регистрацию
    Показать сообщения:    

    Выбор через торрент
    Скачать бесплатно Выбор
    Выбор скачать торрент
    Выбор смотреть онлайн
    Cкачать фильм Выбор бесплатно
    Выбор скачать торрент в хорошем качестве
    Выбор смотреть онлайн бесплатно в хорошем качестве


    Вы не можете начинать темы
    Вы не можете отвечать на сообщения
    Вы не можете редактировать свои сообщения
    Вы не можете удалять свои сообщения
    Вы не можете голосовать в опросах
    Вы не можете прикреплять файлы к сообщениям
    Вы можете скачивать файлы