2 сезон

iTunes

MVO

1

2 сезон

iTunes

iTunes

1 сезон

RePack

30

Новинка

ВАЖНО

ИГРА 18+

pack

RePack

MK11
pack

Легкие деньги

RePack

jed

RePack

fifa19

RePack

RDR2

RePack

NEED FOR SPEED™ PAYBACK

4 сезон

9 сезон

Бесстыжие 9 сезон

Все сериалы

все сериалы на PB.wtf

RePack

FAR CRY 5

Anonymous, добрый вечер, мы не успеваем собрать деньги на оплату серверов за декабрь и январь, помогите нам пожалуйста в это трудное время. В качестве благодарности мы отключим Вам всю рекламу на сайте (укажите свой ник в строку Ваше имя)!

×
  
Magnet ссылка

Наполеон: Русская кампания 1812 года / Napoleon: the Russian campaign / (Серии: 1-2 серии из 2) (Фабрис Урлье) [2013 г., Документальный, постановочный, историческая реконструкция, HDTVRip] VO [SD Медия] R.G.Resident piratbit.org

Скачать  

22-12-2016 14:05 Наполеон: Русская кампания 1812 года Скачать торрент  

Наполеон: Русская кампания 1812 года / Napoleon: the Russian campaign
Год выпуска: 2013
Страна: Франция
Жанр: Документальный, постановочный, историческая реконструкция
Продолжительность: 2 x ~ 00:50:00
Перевод: Профессиональный (одноголосый) SD Медия

Режиссер: Фабрис Урлье

rating

Описание: Мечты Наполеона войти в Москву с триумфом быстро развеялись, когда 14 сентября 1812 он оказался в пустом городе, спаленном пожаром. В 1812 году Наполеон собирает 600-тысячную армию, состоящую из 24 различных национальностей. Вопреки предупреждениям своих советников, уверенный в победе император идет на Москву. По прошествии 172 дней, Наполеон отступает, оставляя позади 400 тысяч человек пленёнными, ранеными и убитыми. Этот фильм попытается ответить на вопрос: почему Наполеон решил завоевать Россию? И как такой великий полководец допустил столько стратегических ошибок? В фильме также рассказывается о том, каким Наполеона видела его армия, русские и монархи других государств.

Качество: HDTVRip
Формат: AVI
Видео кодек: XviD
Аудио кодек: AC3
Видео: 720x368 (1.96:1), 25 fps, XviD build 65 ~1829 kbps avg, 0.28 bit/pixel
Аудио#1: 48 kHz, AC3 Dolby Digital, 2/0 (L,R) ch, ~192.00 kbps avg
Релиз от: ruslanishe
General
Complete name : Napoleon.russkaya.kampaniya.1812.goda.XviD.2013.HDTVRip.R.G.Resident\001.avi
Format : AVI
Format/Info : Audio Video Interleave
File size : 750 MiB
Duration : 51mn 37s
Overall bit rate : 2 032 Kbps
Director : ruslanishe
Writing application : VirtualDubMod 1.5.10.3 | www.virtualdub-fr.org || (build 2550/release)

Video
ID : 0
Format : MPEG-4 Visual
Format profile : Advanced Simple@L5
Format settings, BVOP : 2
Format settings, QPel : No
Format settings, GMC : No warppoints
Format settings, Matrix : Custom
Codec ID : XVID
Codec ID/Hint : XviD
Duration : 51mn 37s
Bit rate : 1 830 Kbps
Width : 720 pixels
Height : 368 pixels
Display aspect ratio : 1.957
Frame rate : 25.000 fps
Color space : YUV
Chroma subsampling : 4:2:0
Bit depth : 8 bits
Scan type : Progressive
Compression mode : Lossy
Bits/(Pixel*Frame) : 0.276
Stream size : 676 MiB (90%)
Writing library : XviD 65

Audio
ID : 1
Format : AC-3
Format/Info : Audio Coding 3
Mode extension : CM (complete main)
Format settings, Endianness : Big
Codec ID : 2000
Duration : 51mn 37s
Bit rate mode : Constant
Bit rate : 192 Kbps
Channel(s) : 2 channels
Channel positions : Front: L R
Sampling rate : 48.0 KHz
Bit depth : 16 bits
Compression mode : Lossy
Stream size : 70.9 MiB (9%)
Alignment : Split accross interleaves
Interleave, duration : 40 ms (1.00 video frame)
Interleave, preload duration : 500 ms

piratbit.org



Скачать
Чтобы иметь возможность скачивать с Торрент Трекера, нужно Зарегистрироваться

Как скачивать  ·  Рейтинг и ограничения



Последний раз редактировалось: ruslanishe (2016-12-30 13:54), всего редактировалось 3 раз(а)

28-11-2019 20:33  

Отключить всю рекламу на сайте

    Дорогой пользователь! Огромная просьба, поблагодарите релизера, оцените раздачу и оставьте свои комментарий, если Вы скачали Наполеон: Русская кампания 1812 года через торрент бесплатно! Внесите свою лепту в развитие PiratBit!
    Комментировать посты могут только пользователи прошедшие не сложную регистрацию
    Показать сообщения:    

    Наполеон: Русская кампания 1812 года через торрент
    Скачать бесплатно Наполеон: Русская кампания 1812 года
    Наполеон: Русская кампания 1812 года скачать торрент
    Наполеон: Русская кампания 1812 года смотреть онлайн
    Cкачать фильм Наполеон: Русская кампания 1812 года бесплатно
    Наполеон: Русская кампания 1812 года скачать торрент в хорошем качестве
    Наполеон: Русская кампания 1812 года смотреть онлайн бесплатно в хорошем качестве


    Вы не можете начинать темы
    Вы не можете отвечать на сообщения
    Вы не можете редактировать свои сообщения
    Вы не можете удалять свои сообщения
    Вы не можете голосовать в опросах
    Вы не можете прикреплять файлы к сообщениям
    Вы не можете скачивать файлы