2 сезон

iTunes

MVO

1

2 сезон

iTunes

iTunes

1 сезон

RePack

30

Ultimate

ВАЖНО

ИГРА 18+

pack

RePack

MK11
pack

Легкие деньги

RePack

jed

RePack

fifa19

RePack

RDR2

RePack

NEED FOR SPEED™ PAYBACK

4 сезон

9 сезон

Бесстыжие 9 сезон

Все сериалы

все сериалы на PB.wtf

RePack

FAR CRY 5

Anonymous, добрый день, мы не успеваем собрать деньги на оплату серверов за декабрь и январь, помогите нам пожалуйста в это трудное время. В качестве благодарности мы отключим Вам всю рекламу на сайте (укажите свой ник в строку Ваше имя)!

×
  
Magnet ссылка

RT. Припять. До востребования [2011 г., Документальный, катастрофа, HDTVRip, Русский] R.G.Resident piratbit.org

Скачать  

24-12-2016 10:37 RT. Припять. До востребования Скачать торрент  

RT. Припять. До востребования
Год выпуска: 2011
Страна: Россия, Russia Today Documentary
Жанр: Документальный, катастрофа
Продолжительность: 00:26:18
Язык: Русский

Описание: 26 апреля 1986 года произошла авария на Чернобыльской АЭС. Люди были эвакуированы с заражённой территории, и с тех пор никто там не живёт. Но в последнее время из зоны отчуждения всё чаще стали приходить уведомления со штемпелем почтового отделения Припяти. Съёмочная группа RT приехала в этот город в надежде прояснить загадочную историю. В давно покинутом здании почты журналисты обнаружили множество неотправленных писем. Конверты с написанными тридцать лет назад адресами – как будто послания из прошлого, из прежней, наполненной каждодневными радостями и печалями жизни, которую в одночасье разрушил страшный взрыв. Похоже, сегодня кто-то пытается напомнить нам о том времени…

Качество: HDTVRip
Формат: AVI
Видео кодек: XviD
Аудио кодек: AC3
Видео: 720x400 (1.80:1), 25 fps, XviD build 65 ~1660 kbps avg, 0.23 bit/pixel
Аудио#1: 48 kHz, AC3 Dolby Digital, 2/0 (L,R) ch, ~192.00 kbps avg
Релиз от: ruslanishe
Complete name : Pripyat.do.vostrebovaniya.XviD.2011.HDTVRip.R.G.Resident.avi
Format : AVI
Format/Info : Audio Video Interleave
File size : 350 MiB
Duration : 26mn 18s
Overall bit rate : 1 862 Kbps
Director : ruslanishe
Writing application : VirtualDubMod 1.5.10.3 | www.virtualdub-fr.org || (build 2550/release)

Video
ID : 0
Format : MPEG-4 Visual
Format profile : Advanced Simple@L5
Format settings, BVOP : 2
Format settings, QPel : No
Format settings, GMC : No warppoints
Format settings, Matrix : Custom
Codec ID : XVID
Codec ID/Hint : XviD
Duration : 26mn 18s
Bit rate : 1 660 Kbps
Width : 720 pixels
Height : 400 pixels
Display aspect ratio : 16:9
Frame rate : 25.000 fps
Color space : YUV
Chroma subsampling : 4:2:0
Bit depth : 8 bits
Scan type : Progressive
Compression mode : Lossy
Bits/(Pixel*Frame) : 0.231
Stream size : 312 MiB (89%)
Writing library : XviD 65

Audio
ID : 1
Format : AC-3
Format/Info : Audio Coding 3
Mode extension : CM (complete main)
Format settings, Endianness : Big
Codec ID : 2000
Duration : 26mn 18s
Bit rate mode : Constant
Bit rate : 192 Kbps
Channel(s) : 2 channels
Channel positions : Front: L R
Sampling rate : 48.0 KHz
Bit depth : 16 bits
Compression mode : Lossy
Stream size : 36.1 MiB (10%)
Alignment : Split accross interleaves
Interleave, duration : 40 ms (1.00 video frame)
Interleave, preload duration : 500 ms

piratbit.org



Скачать
Чтобы иметь возможность скачивать с Торрент Трекера, нужно Зарегистрироваться

Как скачивать  ·  Рейтинг и ограничения



Последний раз редактировалось: ruslanishe (2016-12-30 13:52), всего редактировалось 1 раз

28-11-2019 20:33  

Отключить всю рекламу на сайте

    Дорогой пользователь! Огромная просьба, поблагодарите релизера, оцените раздачу и оставьте свои комментарий, если Вы скачали RT. Припять. До востребования через торрент бесплатно! Внесите свою лепту в развитие PiratBit!
    Комментировать посты могут только пользователи прошедшие не сложную регистрацию
    Показать сообщения:    

    RT. Припять. До востребования через торрент
    Скачать бесплатно RT. Припять. До востребования
    RT. Припять. До востребования скачать торрент
    RT. Припять. До востребования смотреть онлайн
    Cкачать фильм RT. Припять. До востребования бесплатно
    RT. Припять. До востребования скачать торрент в хорошем качестве
    RT. Припять. До востребования смотреть онлайн бесплатно в хорошем качестве


    Вы не можете начинать темы
    Вы не можете отвечать на сообщения
    Вы не можете редактировать свои сообщения
    Вы не можете удалять свои сообщения
    Вы не можете голосовать в опросах
    Вы не можете прикреплять файлы к сообщениям
    Вы не можете скачивать файлы