Ссылка на приватное зеркало нашего сайта всего за 1$. Внимание количество ограничено!!!

2 сезон

iTunes

1 сезон

1

2 сезон

2 сезон

iTunes

1 сезон

RePack

30

Новинка

ВАЖНО

ИГРА 18+

pack

RePack

MK11
pack

Забери бонус

RePack

jed

!!Акция!!

Alien_Rage

RePack

fifa19

RePack

Assassins Creed: Odyssey

RePack

NEED FOR SPEED™ PAYBACK

4 сезон

9 сезон

Бесстыжие 9 сезон

Все сериалы

все сериалы на PB.wtf

RePack

FAR CRY 5
  

Клевый парень / Bowfinger (Фрэнк Оз / Frank Oz) [1999, Комедия, BDRip 720p] 4x [MVO] +3x [AVO] + 2x [DVO] piratbit.org

Клевый парень через торрент piratbit.org

Раздают: 1 [ 0 KB/s ]
Размер: 10.15 GB | Добавлен: 14 д. назад | Торрент скачан:23 раза
Скачать  

24-12-2016 20:28 Клевый парень Скачать торрент  


Клевый парень / Bowfinger


Год выпуска: 1999
Выпущено: США
Жанр: комедия
Продолжительность: 01:36:49
Перевод 1: Профессиональный (многоголосый закадровый) R5
Перевод 2: Профессиональный (многоголосый закадровый) Позитив Мультимедиа
Перевод 3: Профессиональный (многоголосый закадровый) Первый канал/ТВ3
Перевод 4: Профессиональный (многоголосый закадровый) СТС
Перевод 5: Профессиональный (двухголосый закадровый) Премьер Мультимедиа
Перевод 6: Авторский (одноголосый закадровый) Живов
Перевод 7: Авторский (одноголосый закадровый) Дольский
Перевод 8: Авторский (одноголосый закадровый) Кашкин
Субтитры: русские, английские

Режиссер: Фрэнк Оз / Frank Oz

В ролях: Стив Мартин, Эдди Мерфи, Хизер Грэм, Роберт Дауни-мл., Теренс Стамп, Кристин Барански

Описание: Бобби Боуфингер — клевый парень! Не беда, что он абсолютно бестолковый режиссер и самый большой проходимец в Голливуде. Бобби задумал снять настоящий боевик. И не просто боевик, а блокбастер, который принесет огромную кассу и немеркнущую славу. Что же для этого потребуется? Во — первых, — хороший сценарий! Сценарий у Бобби есть. И какой!
Есть лишь одна маленькая проблема: Кит Рэмзи сниматься у Бобби не собирается. И тогда «непотопляемый» Боуфингер находит выход. Он будет снимать Кита Рэмзи «скрытой» камерой, создавая ситуации, соответствующие сценарию.
rating
Релиз -- by delia

Тип релиза: BDRip 720p
Контейнер: MKV

Видео: 1280x696 at 23.976 fps, x264@L4.1, ~6133 kbps avg
Аудио#1: Russian: 48 kHz/16-bit, DTS 5.1, ~1509 kbps avg |Многоголосый закадровый, R5|
Аудио#2: Russian: 48 kHz, AC3, 3/2 (L,C,R,l,r) + LFE ch, ~448 kbps avg |Многоголосый закадровый, Позитив Мультимедиа|
Аудио#3: Russian: 48 kHz, AC3, 2/0 (L,R) ch, ~192 kbps avg |Многоголосый закадровый, Первый канал/ТВ3|
Аудио#4: Russian: 48 kHz, AC3, 2/0 (L,R) ch, ~192 kbps avg |Многоголосый закадровый, СТС|
Аудио#5: Russian: 48 kHz/24-bit, DTS 2. 0, ~1509 kbps avg |Двухголосый закадровый, Премьер Мультимедиа|
Аудио#6: Russian: 48 kHz/16-bit, DTS 5.1, ~1509 kbps avg |Одноголосый закадровый, Живов|
Аудио#7: Russian: 48 kHz, AC3, 2/0 (L,R) ch, ~192 kbps avg |Одноголосый закадровый, Дольский|
Аудио#8: Russian: 48 kHz, AC3, 2/0 (L,R) ch, ~224 kbps avg |Одноголосый закадровый, Кашкин|
Аудио#9: Ukrainian: 48 kHz/16-bit, DTS 5.1, ~1509 kbps avg |Двухголосый закадровый, Новый канал|
Аудио#10: English: 48 kHz/16-bit, DTS 5.1, ~1509 kbps avg
Аудио#11: English: 48 kHz, AAC, 2/0 (L,R) ch, ~79 kbps avg |Commentary|
Формат субтитров: softsub (SRT)
General
Unique ID : 248799547636379617855024640090912103789 (0xBB2D0CC5DF48AE5C92AB204C53A89D6D)
Complete name : F:\Фильмы\Bowfinger.1999.720p.BluRay.8xRus.Ukr.Eng.HDCLUB-SbR.mkv
Format : Matroska
Format version : Version 4 / Version 2
File size : 10.2 GiB
Duration : 1h 36mn
Overall bit rate : 15.0 Mbps
Encoded date : UTC 2016-12-15 13:27:05
Writing application : mkvmerge v9.6.0 ('Slave To Your Mind') 64bit
Writing library : libebml v1.3.4 + libmatroska v1.4.5
Attachements : cover.jpg
DURATION : 01:34:47.187000000
NUMBER_OF_FRAMES : 1014
NUMBER_OF_BYTES : 39336
_STATISTICS_WRITING_APP : mkvmerge v9.6.0 ('Slave To Your Mind') 64bit
_STATISTICS_WRITING_DATE_UTC : 2016-12-15 13:27:05
_STATISTICS_TAGS : BPS DURATION NUMBER_OF_FRAMES NUMBER_OF_BYTES

Video
ID : 1
Format : AVC
Format/Info : Advanced Video Codec
Format profile : High@L4.1
Format settings, CABAC : Yes
Format settings, ReFrames : 9 frames
Codec ID : V_MPEG4/ISO/AVC
Duration : 1h 36mn
Width : 1 280 pixels
Height : 696 pixels
Display aspect ratio : 1.85:1
Frame rate mode : Constant
Frame rate : 23.976 fps
Color space : YUV
Chroma subsampling : 4:2:0
Bit depth : 8 bits
Scan type : Progressive
Writing library : x264 core 148 r2744+55 950084e t_mod_Custom [8-bit@all X86_64]
Encoding settings : cabac=1 / ref=9 / deblock=1:-3:-3 / analyse=0x3:0x133 / me=umh / subme=10 / psy=1 / fade_compensate=0.00 / psy_rd=1.00:0.05 / mixed_ref=1 / me_range=32 / chroma_me=1 / trellis=2 / 8x8dct=1 / cqm=0 / deadzone=21,11 / fast_pskip=0 / chroma_qp_offset=-3 / threads=6 / lookahead_threads=1 / sliced_threads=0 / nr=0 / decimate=1 / interlaced=0 / bluray_compat=0 / constrained_intra=0 / fgo=0 / bframes=12 / b_pyramid=2 / b_adapt=2 / b_bias=0 / direct=3 / weightb=1 / open_gop=0 / weightp=2 / keyint=250 / keyint_min=23 / scenecut=40 / intra_refresh=0 / rc_lookahead=60 / rc=crf / mbtree=0 / crf=16.5000 / qcomp=0.60 / qpmin=0:0:0 / qpmax=69:69:69 / qpstep=4 / vbv_maxrate=62500 / vbv_bufsize=78125 / crf_max=0.0 / nal_hrd=none / filler=0 / ip_ratio=1.30 / pb_ratio=1.20 / aq=1:0.65 / aq-sensitivity=10.00 / aq-factor=1.00:1.00:1.00 / aq2=0 / aq3=0
Language : English
Default : Yes
Forced : No
Color primaries : BT.709
Transfer characteristics : BT.709
Matrix coefficients : BT.709
Color range : Limited
DURATION : 01:36:49.643000000
NUMBER_OF_FRAMES : 139292
NUMBER_OF_BYTES : 4454166376
_STATISTICS_WRITING_APP : mkvmerge v9.6.0 ('Slave To Your Mind') 64bit
_STATISTICS_WRITING_DATE_UTC : 2016-12-15 13:27:05
_STATISTICS_TAGS : BPS DURATION NUMBER_OF_FRAMES NUMBER_OF_BYTES

Audio #1
ID : 2
Format : DTS
Format/Info : Digital Theater Systems
Mode : 16
Format settings, Endianness : Big
Codec ID : A_DTS
Duration : 1h 36mn
Bit rate mode : Constant
Bit rate : 1 509 Kbps
Channel(s) : 6 channels
Channel positions : Front: L C R, Side: L R, LFE
Sampling rate : 48.0 KHz
Bit depth : 24 bits
Compression mode : Lossy
Stream size : 1.02 GiB (10%)
Title : Многоголосый закадровый, R5
Language : Russian
Default : Yes
Forced : No

Audio #2
ID : 3
Format : AC-3
Format/Info : Audio Coding 3
Mode extension : CM (complete main)
Format settings, Endianness : Big
Codec ID : A_AC3
Duration : 1h 36mn
Bit rate mode : Constant
Bit rate : 448 Kbps
Channel(s) : 6 channels
Channel positions : Front: L C R, Side: L R, LFE
Sampling rate : 48.0 KHz
Bit depth : 16 bits
Compression mode : Lossy
Stream size : 310 MiB (3%)
Title : Многоголосый закадровый, Позитив Мультимедиа
Language : Russian
Default : No
Forced : No

Audio #3
ID : 4
Format : AC-3
Format/Info : Audio Coding 3
Mode extension : CM (complete main)
Format settings, Endianness : Big
Codec ID : A_AC3
Duration : 1h 36mn
Bit rate mode : Constant
Bit rate : 192 Kbps
Channel(s) : 2 channels
Channel positions : Front: L R
Sampling rate : 48.0 KHz
Bit depth : 16 bits
Compression mode : Lossy
Stream size : 133 MiB (1%)
Title : Многоголосый закадровый, Первый канал/ТВ3
Language : Russian
Default : No
Forced : No

Audio #4
ID : 5
Format : AC-3
Format/Info : Audio Coding 3
Mode extension : CM (complete main)
Format settings, Endianness : Big
Codec ID : A_AC3
Duration : 1h 36mn
Bit rate mode : Constant
Bit rate : 192 Kbps
Channel(s) : 2 channels
Channel positions : Front: L R
Sampling rate : 48.0 KHz
Bit depth : 16 bits
Compression mode : Lossy
Stream size : 133 MiB (1%)
Title : Многоголосый закадровый, СТС
Language : Russian
Default : No
Forced : No

Audio #5
ID : 6
Format : DTS
Format/Info : Digital Theater Systems
Mode : 16
Format settings, Endianness : Big
Codec ID : A_DTS
Duration : 1h 36mn
Bit rate mode : Constant
Bit rate : 1 509 Kbps
Channel(s) : 2 channels
Channel positions : Front: L R
Sampling rate : 48.0 KHz
Bit depth : 24 bits
Compression mode : Lossy
Stream size : 1.02 GiB (10%)
Title : Двухголосый закадровый, Премьер Мультимедиа
Language : Russian
Default : No
Forced : No

Audio #6
ID : 7
Format : DTS
Format/Info : Digital Theater Systems
Mode : 16
Format settings, Endianness : Big
Codec ID : A_DTS
Duration : 1h 36mn
Bit rate mode : Constant
Bit rate : 1 509 Kbps
Channel(s) : 6 channels
Channel positions : Front: L C R, Side: L R, LFE
Sampling rate : 48.0 KHz
Bit depth : 24 bits
Compression mode : Lossy
Stream size : 1.02 GiB (10%)
Title : Одноголосый закадровый, Ю.Живов
Language : Russian
Default : No
Forced : No

Audio #7
ID : 8
Format : AC-3
Format/Info : Audio Coding 3
Mode extension : CM (complete main)
Format settings, Endianness : Big
Codec ID : A_AC3
Duration : 1h 36mn
Bit rate mode : Constant
Bit rate : 192 Kbps
Channel(s) : 2 channels
Channel positions : Front: L R
Sampling rate : 48.0 KHz
Bit depth : 16 bits
Compression mode : Lossy
Stream size : 133 MiB (1%)
Title : Одноголосый закадровый, А.Дольский
Language : Russian
Default : No
Forced : No

Audio #8
ID : 9
Format : AC-3
Format/Info : Audio Coding 3
Mode extension : CM (complete main)
Format settings, Endianness : Big
Codec ID : A_AC3
Duration : 1h 36mn
Bit rate mode : Constant
Bit rate : 224 Kbps
Channel(s) : 2 channels
Channel positions : Front: L R
Sampling rate : 48.0 KHz
Bit depth : 16 bits
Compression mode : Lossy
Stream size : 155 MiB (1%)
Title : Одноголосый закадровый, А.Кашкин
Language : Russian
Default : No
Forced : No

Audio #9
ID : 10
Format : DTS
Format/Info : Digital Theater Systems
Mode : 16
Format settings, Endianness : Big
Codec ID : A_DTS
Duration : 1h 36mn
Bit rate mode : Constant
Bit rate : 1 509 Kbps
Channel(s) : 6 channels
Channel positions : Front: L C R, Side: L R, LFE
Sampling rate : 48.0 KHz
Bit depth : 24 bits
Compression mode : Lossy
Stream size : 1.02 GiB (10%)
Title : Двухголосый закадровый, Новый канал
Language : Ukrainian
Default : No
Forced : No

Audio #10
ID : 11
Format : DTS
Format/Info : Digital Theater Systems
Mode : 16
Format settings, Endianness : Big
Codec ID : A_DTS
Duration : 1h 36mn
Bit rate mode : Constant
Bit rate : 1 509 Kbps
Channel(s) : 6 channels
Channel positions : Front: L C R, Side: L R, LFE
Sampling rate : 48.0 KHz
Bit depth : 24 bits
Compression mode : Lossy
Stream size : 1.02 GiB (10%)
Language : English
Default : No
Forced : No

Audio #11
ID : 12
Format : AAC
Format/Info : Advanced Audio Codec
Format profile : LC
Codec ID : A_AAC
Duration : 1h 36mn
Channel(s) : 2 channels
Channel positions : Front: L R
Sampling rate : 48.0 KHz
Compression mode : Lossy
Delay relative to video : 9ms
Title : Commentary
Language : English
Default : No
Forced : No

Text #1
ID : 13
Format : UTF-8
Codec ID : S_TEXT/UTF8
Codec ID/Info : UTF-8 Plain Text
Language : Russian
Default : No
Forced : No

Text #2
ID : 14
Format : UTF-8
Codec ID : S_TEXT/UTF8
Codec ID/Info : UTF-8 Plain Text
Language : English
Default : No
Forced : No

Menu
00:00:00.000 : en:00:00:00.000
00:05:43.759 : en:00:05:43.759
00:12:33.250 : en:00:12:33.250
00:23:04.923 : en:00:23:04.923
00:29:15.086 : en:00:29:15.086
00:37:09.059 : en:00:37:09.059
00:46:13.061 : en:00:46:13.061
00:56:53.617 : en:00:56:53.617
01:05:11.157 : en:01:05:11.157
01:12:13.787 : en:01:12:13.787
01:20:57.350 : en:01:20:57.350
01:29:48.716 : en:01:29:48.716
скриншот  скриншот  скриншот  

piratbit.org



Скачать Клевый парень через торрент http://i57.fastpic.ru/big/2013/1206/fe/c98441901d0b78157508bbd228a76cfe.jpg Скачать фильм Клевый парень через торрент бесплантно в хорошем качестве Описание: Бобби Боуфингер — клевый парень! Не беда, что он абсолютно бестолковый режиссер и самый большой проходимец в Голливуде. Бобби ... 10 10 6
Торрент: Зарегистрирован [2020-11-20 17:23] · скачан: 23 раз
Статус: √ проверено
Размер: 10.15 GB
Как cкачать? Как скачать Клевый парень через торрент | qTorrent

% Раздел Тема Автор DL S | L
Фильмы до 2000 г. [ 1.45 GB ] Клевый Парень / Bowfinger [1999 HDTVRip] 2x[MVO] + [AVO] killermax2013 Скачать
2 | 0
Фильмы до 2000 г. [ 1.45 GB ] Клевый парень / Bowfinger [1999 BDRip] MVO koenig Скачать
2 | 0
Фильмы до 2000 г. [ 1.36 GB ] Клевый парень / Bowfinger [1999 HDTVRip] [AVO] + [DVO] killermax2013 Скачать
1 | 0


Последний раз редактировалось: killermax2013 (2020-11-20 17:29), всего редактировалось 4 раз(а)

28-11-2019 20:33  

Отключить всю рекламу на сайте

25-12-2016 13:22 Клевый парень Скачать торрент  

клевый парень носастый был белобрысыйpiratbit.org



    Дорогой пользователь! Огромная просьба, поблагодарите релизера, оцените раздачу и оставьте свои комментарий, если Вы скачали Клевый парень через торрент бесплатно! Внесите свою лепту в развитие PiratBit!
    Комментировать посты могут только пользователи прошедшие не сложную регистрацию
    Показать сообщения:    

    Клевый парень через торрент
    Скачать бесплатно Клевый парень
    Клевый парень скачать торрент
    Клевый парень смотреть онлайн
    Cкачать фильм Клевый парень бесплатно
    Клевый парень скачать торрент в хорошем качестве
    Клевый парень смотреть онлайн бесплатно в хорошем качестве


    Вы не можете начинать темы
    Вы не можете отвечать на сообщения
    Вы не можете редактировать свои сообщения
    Вы не можете удалять свои сообщения
    Вы не можете голосовать в опросах
    Вы не можете прикреплять файлы к сообщениям
    Вы можете скачивать файлы