Marvel's Avengers Deluxe Edition (супер цена) 159р. Внимание количество ограничено!!!

2 сезон

iTunes

iTunes

1

iTunes

iTunes

iTunes

WEBRip

iTunes

30
pack

Новость дня

ВАЖНО

!!Акция!!

Alien_RageХит недели

RePack

Horizon Zero Dawn

ИГРА 18+

pack

RePack

jed

!!Акция!!

Alien_Rage

RePack

fifa19

RePack

Assassins Creed: Odyssey

RePack

NEED FOR SPEED™ PAYBACK

4 сезон

9 сезон

Бесстыжие 9 сезон

Все сериалы

все сериалы на PB.wtf

RePack

FAR CRY 5
  

Престиж / The Prestige (Кристофер Нолан) [2006 г., фантастика, триллер, драма, HDRip] piratbit.org

Престиж через торрент piratbit.org

Раздают: 1 [ 0 KB/s ] Качают: 1 [ 0 KB/s ]
Размер: 1.47 GB | Добавлен: 10 лет назад | Торрент скачан:1410 раз
Скачать  

17-09-2010 14:23 Престиж Скачать торрент  

Престиж / The Prestige
Год выпуска: 2006
Страна: США, Великобритания
Жанр: Фантастика, триллер, драма


Продолжительность: 02:10:29
Перевод: Профессиональный (двухголосый)
Режиссер
: Кристофер Нолан


В ролях: Хью Джекман, Кристиан Бэйл, Майкл Кейн, Пайпер Перабо, Ребекка Холл, Скарлетт Йоханссон, Саманта Мэхурин, Дэвид Боуи, Энди Серкис, Дэниэл Дэвис


Описание: Престиж — это, как объясняет в самом начале фильма герой Майкла Кейна, — совсем не то, вернее, не только то, что имеет в виду большинство людей: не только статус, высота положения и зависть окружающих. Престиж — та самая третья, завершающая часть любого фокуса, ради которой и проделывают леденящие душу трюки с распиливанием девушки пилой или расплющиванием птицы клеткой. Престиж — это когда ослепительная блондинка целой и невредимой выходит из ящика на поклоны.
Лондон, рубеж XIX--XX веков. Под руководством героя Кейна двое молодых фокусников — Роберт (Хью Джекман) и Альфред (Кристиан Бэйл) начинают свою карьеру. По вине Альфреда погибает жена Роберта — Джулия. Труппа распалась, карьера Каттера (Майкл Кейн) как артиста закончилась, а между Альфредом и Робертом начинается конкуренция, во многом завязанная на личной мести. Однако со временем первоначальные мотивы оказались напрочь позабыты…



Качество: HDRip
Формат: AVI
Видео кодек: DivX
Видео: 672x288 (2.33:1), 23.976 fps, XviD build 50 ~1151 kbps avg, 0.25 bit/pixel
Аудио: 48 kHz, AC3 Dolby Digital, 3/2 (L,C,R,l,r) + LFE ch, ~448 kbps


Сэмпл




General
Complete name : F:The.Prestige.2006.HDRip.avi
Format : AVI
Format/Info : Audio Video Interleave
File size : 1.47 GiB
Duration : 2h 10mn
Overall bit rate : 1 609 Kbps
Writing application : VirtualDubMod 1.5.10.2 (build 2540/release)
Writing library : VirtualDubMod build 2540/release
Video
ID : 0
Format : MPEG-4 Visual
Format profile : AdvancedSimple@L5
Format settings, BVOP : Yes
Format settings, QPel : No
Format settings, GMC : No warppoints
Format settings, Matrix : Custom
Codec ID : XVID
Codec ID/Hint : XviD
Duration : 2h 10mn
Bit rate : 1 152 Kbps
Width : 672 pixels
Height : 288 pixels
Display aspect ratio : 2.35:1
Frame rate : 23.976 fps
Resolution : 24 bits
Colorimetry : 4:2:0
Scan type : Progressive
Bits/(Pixel*Frame) : 0.248
Stream size : 1.05 GiB (72%)
Writing library : XviD 1.2.1 (UTC 2008-12-04)
Audio
ID : 1
Format : AC-3
Format/Info : Audio Coding 3
Codec ID : 2000
Duration : 2h 10mn
Bit rate mode : Constant
Bit rate : 448 Kbps
Channel(s) : 6 channels
Channel positions : Front: L C R, Surround: L R, LFE
Sampling rate : 48.0 KHz
Stream size : 418 MiB (28%)
Alignment : Aligned on interleaves
Interleave, duration : 42 ms (1.00 video frame)
Interleave, preload duration : 512 ms
piratbit.org



Скачать Престиж через торрент http://pic.kartinco.top/images/6/gdr9x.jpg Скачать фильм Престиж через торрент бесплантно в хорошем качестве Описание: Престиж — это, как объясняет в самом начале фильма герой Майкла Кейна, — совсем не то, вернее, не только то, что имеет в виду ... 10 10 21
Info! Золотая раздача, скачанное не засчитывается.
Торрент: Зарегистрирован [2010-09-17 14:47] · скачан: 1 410 раз
Статус: √ проверено
Размер: 1.47 GB
Как cкачать? Как скачать Престиж через торрент | qTorrent

% Раздел Тема Автор DL S | L
Ultra HD (UHD: 2K, 4K, 8K) — видео сверхвысокой чёткости [ 68.82 GB ] Престиж / The Prestige [2006 UHD Blu-ray 2160p] DUB bober100 Скачать
1 | 0
Фильмы [HD 720p, 1080p] (Хороший звук DUB, MVO) [ 21.66 GB ] Престиж / The Prestige [2006 BDRip 1080p by msltel] DUB 2 x DVO 4 x AVO msltel Скачать
1 | 0
Фильмы [HD 720p, 1080p] (Хороший звук DUB, MVO) [ 7.88 GB ] Престиж / The Prestige [2006 BDRip 720p by msltel] DUB 2 x DVO 4 x AVO msltel Скачать
2 | 0
Ultra HD (UHD: 2K, 4K, 8K) — видео сверхвысокой чёткости [ 74.8 GB ] Престиж / The Prestige [2006 UHD BDRemux 2160p] DUB+2xDVO+4xAVO+2xMVO bober100 Скачать
2 | 0
Фильмы (HD 720p, 1080p) (48-60 fps) [ 6.36 GB ] Престиж / The Prestige [2006 BDRip 720p / 60 fps] DUB еnvy Скачать
1 | 0
Фильмы [HD 720p, 1080p] (Хороший звук DUB, MVO) [ 5.52 GB ] Престиж / The Prestige [2006 BDRip DUB + Оригинал ] F.U. Скачать
1 | 0
Фильмы 2006-2008 [ 2.18 GB ] Престиж / The Prestige [2006 BDRip] .::Sergey::. Скачать
4 | 0


Последний раз редактировалось: Frim (2010-09-18 12:33), всего редактировалось 11 раз(а)

28-11-2019 20:33  

Отключить всю рекламу на сайте

17-09-2010 14:29 Престиж Скачать торрент  

сделай семплpiratbit.org



17-09-2010 15:08 Престиж Скачать торрент  

Оформление окончено, дерзайте друзья, фильм очень интересный.
P.S. Скорость не ахти, о чем я предупреждаю во всех своих РАЗДАЧАХpiratbit.org



17-09-2010 15:09 Престиж Скачать торрент  

мега-крутой фиильм один из моих самых любимых...piratbit.org



17-09-2010 15:16 Престиж Скачать торрент  

Да, да и девчёнки хороши piratbit.org



17-09-2010 20:19 Престиж Скачать торрент  

Смотрел достаточно давно, фильм действительно зачетный. Посмотреть стоит, время потрачено будет не зря.piratbit.org



17-09-2010 20:43 Престиж Скачать торрент  

Фрим плохого не релизит :)piratbit.org



17-09-2010 21:11 Престиж Скачать торрент  

качнём.piratbit.org



18-09-2010 12:35 Престиж Скачать торрент  

Спасибо начальству за "Проверено" :)piratbit.org



19-03-2011 09:46 Престиж Скачать торрент  

Ой, как же я раньше прошёл мимо этого фильма!piratbit.org



28-12-2011 16:09 Престиж Скачать торрент  

Встаньте на раздачу кто-нибудь:)
Заранее спасибо.piratbit.org



    Дорогой пользователь! Огромная просьба, поблагодарите релизера, оцените раздачу и оставьте свои комментарий, если Вы скачали Престиж через торрент бесплатно! Внесите свою лепту в развитие PiratBit!
    Комментировать посты могут только пользователи прошедшие не сложную регистрацию
    Показать сообщения:    

    Престиж через торрент
    Скачать бесплатно Престиж
    Престиж скачать торрент
    Престиж смотреть онлайн
    Cкачать фильм Престиж бесплатно
    Престиж скачать торрент в хорошем качестве
    Престиж смотреть онлайн бесплатно в хорошем качестве


    Вы не можете начинать темы
    Вы не можете отвечать на сообщения
    Вы не можете редактировать свои сообщения
    Вы не можете удалять свои сообщения
    Вы не можете голосовать в опросах
    Вы не можете прикреплять файлы к сообщениям
    Вы можете скачивать файлы