2 сезон

iTunes

MVO

1

2 сезон

iTunes

iTunes

1 сезон

RePack

30

Новинка

ВАЖНО

ИГРА 18+

pack

RePack

MK11
pack

Легкие деньги

RePack

jed

RePack

fifa19

RePack

RDR2

RePack

NEED FOR SPEED™ PAYBACK

4 сезон

9 сезон

Бесстыжие 9 сезон

Все сериалы

все сериалы на PB.wtf

RePack

FAR CRY 5

Anonymous, доброй ночи, мы не успеваем собрать деньги на оплату серверов за декабрь и январь, помогите нам пожалуйста в это трудное время. В качестве благодарности мы отключим Вам всю рекламу на сайте (укажите свой ник в строку Ваше имя)!

×
  
Magnet ссылка

Игры и войны [2016 г., Документальный, познавательный, техника, HDTVRip, Русский] R.G.Resident piratbit.org

Скачать  

26-12-2016 09:48 Игры и войны Скачать торрент  

Игры и войны
Год выпуска: 2016
Страна: Россия, Russia Today Documentary
Жанр: Документальный, познавательный, техника
Продолжительность: 00:52:08
Язык: Русский

Описание: В мире активно ведутся разработки автоматизированных систем военного назначения. В авиации давно появились беспилотные летательные аппараты, управляемые с земли. Сегодня тестовые испытания проходят компьютеры, способные вести боевые действия вообще без участия людей. Учёные утверждают, что «умное оружие» способно не только различать военных и гражданских лиц, но и мгновенно принимать решения, обрабатывая при этом такой объём информации, который Homo sapiens охватить не способен. На очереди – самообучающийся искусственный интеллект. И тогда в его власти неизбежно окажутся и человеческие судьбы, и человеческие жизни. Не опасно ли доверять наш хрупкий мир роботам?

Качество: HDTVRip
Формат: AVI
Видео кодек: XviD
Аудио кодек: AC3
Видео: 720x400 (1.80:1), 25 fps, XviD build 65 ~1811 kbps avg, 0.25 bit/pixel
Аудио#1: 48 kHz, AC3 Dolby Digital, 2/0 (L,R) ch, ~192.00 kbps avg
Релиз от: ruslanishe
Complete name : Igry.i.vojny.XviD.2016.HDTVRip.R.G.Resident.avi
Format : AVI
Format/Info : Audio Video Interleave
File size : 750 MiB
Duration : 52mn 7s
Overall bit rate : 2 013 Kbps
Director : ruslanishe
Writing application : VirtualDubMod 1.5.10.3 | www.virtualdub-fr.org || (build 2550/release)

Video
ID : 0
Format : MPEG-4 Visual
Format profile : Advanced Simple@L5
Format settings, BVOP : 2
Format settings, QPel : No
Format settings, GMC : No warppoints
Format settings, Matrix : Custom
Codec ID : XVID
Codec ID/Hint : XviD
Duration : 52mn 7s
Bit rate : 1 811 Kbps
Width : 720 pixels
Height : 400 pixels
Display aspect ratio : 16:9
Frame rate : 25.000 fps
Color space : YUV
Chroma subsampling : 4:2:0
Bit depth : 8 bits
Scan type : Progressive
Compression mode : Lossy
Bits/(Pixel*Frame) : 0.251
Stream size : 675 MiB (90%)
Writing library : XviD 65

Audio
ID : 1
Format : AC-3
Format/Info : Audio Coding 3
Mode extension : CM (complete main)
Format settings, Endianness : Big
Codec ID : 2000
Duration : 52mn 7s
Bit rate mode : Constant
Bit rate : 192 Kbps
Channel(s) : 2 channels
Channel positions : Front: L R
Sampling rate : 48.0 KHz
Bit depth : 16 bits
Compression mode : Lossy
Stream size : 71.6 MiB (10%)
Alignment : Split accross interleaves
Interleave, duration : 40 ms (1.00 video frame)
Interleave, preload duration : 500 ms

piratbit.org



Скачать
Чтобы иметь возможность скачивать с Торрент Трекера, нужно Зарегистрироваться

Как скачивать  ·  Рейтинг и ограничения



Последний раз редактировалось: ruslanishe (2016-12-30 13:52), всего редактировалось 1 раз

28-11-2019 20:33  

Отключить всю рекламу на сайте


    Дорогой пользователь! Огромная просьба, поблагодарите релизера, оцените раздачу и оставьте свои комментарий, если Вы скачали Игры и войны через торрент бесплатно! Внесите свою лепту в развитие PiratBit!
    Комментировать посты могут только пользователи прошедшие не сложную регистрацию
    Показать сообщения:    

    Игры и войны через торрент
    Скачать бесплатно Игры и войны
    Игры и войны скачать торрент
    Игры и войны смотреть онлайн
    Cкачать фильм Игры и войны бесплатно
    Игры и войны скачать торрент в хорошем качестве
    Игры и войны смотреть онлайн бесплатно в хорошем качестве


    Вы не можете начинать темы
    Вы не можете отвечать на сообщения
    Вы не можете редактировать свои сообщения
    Вы не можете удалять свои сообщения
    Вы не можете голосовать в опросах
    Вы не можете прикреплять файлы к сообщениям
    Вы не можете скачивать файлы