2 сезон

iTunes

MVO

1

2 сезон

iTunes

iTunes

1 сезон

RePack

30

Новинка

ВАЖНО

ИГРА 18+

pack

RePack

MK11
pack

Легкие деньги

RePack

jed

RePack

fifa19

RePack

RDR2

RePack

NEED FOR SPEED™ PAYBACK

4 сезон

9 сезон

Бесстыжие 9 сезон

Все сериалы

все сериалы на PB.wtf

RePack

FAR CRY 5

Anonymous, доброй ночи, мы не успеваем собрать деньги на оплату серверов за декабрь и январь, помогите нам пожалуйста в это трудное время. В качестве благодарности мы отключим Вам всю рекламу на сайте (укажите свой ник в строку Ваше имя)!

×
  
Magnet ссылка

RT. Кирк Бладсуорт. Осуждённый на казнь / Bloodsworth: An Innocent Man [2015 г., Документальный, HDTVRip] Профессиональный (одноголосый) R.G.Resident piratbit.org

Скачать  

27-12-2016 11:46 RT. Кирк Бладсуорт. Осуждённый на казнь Скачать торрент  

RT. Кирк Бладсуорт. Осуждённый на казнь / Bloodsworth: An Innocent Man
Год выпуска: 2015
Страна: США, Bloodsworth film llc
Жанр: Документальный
Продолжительность: 00:52:47
Перевод: Профессиональный (одноголосый)

Описание: Сюжет фильма отправляет зрителей в прошлое, в 1984 год. Леса Роуздейла, Балтимор. В этой местности найден труп девочки. Ей было 9 лет. В новостях всех телеканалов все сразу же заговорили о данной смерти. Кроме того, что ее убили, так еще и изнасиловали. Кто же это сделал? Какой-то мужчина совершает звонок в полицию. Он говорит о том, что на предоставленный фоторобот похож его сосед. Именно так Кирк Бладсуорт становится главным подозреваемым в этом деле.

Качество: HDTVRip
Формат: AVI
Видео кодек: XviD
Аудио кодек: AC3
Видео: 720x400 (1.80:1), 25 fps, XviD build 65 ~1786 kbps avg, 0.25 bit/pixel
Аудио#1: 48 kHz, AC3 Dolby Digital, 2/0 (L,R) ch, ~192.00 kbps avg
Релиз от: ruslanishe
General
Kirk.Bladsuort.Osuzhdennyj.na.kazn.XviD.2015.HDTVRip.R.G.Resident.avi
Format : AVI
Format/Info : Audio Video Interleave
File size : 750 MiB
Duration : 52mn 47s
Overall bit rate : 1 988 Kbps
Writing application : VirtualDubMod 1.5.10.3 | www.virtualdub-fr.org || (build 2550/release)
Writing library : VirtualDubMod build 2550/release

Video
ID : 0
Format : MPEG-4 Visual
Format profile : Advanced Simple@L5
Format settings, BVOP : 2
Format settings, QPel : No
Format settings, GMC : No warppoints
Format settings, Matrix : Custom
Codec ID : XVID
Codec ID/Hint : XviD
Duration : 52mn 47s
Bit rate : 1 786 Kbps
Width : 720 pixels
Height : 400 pixels
Display aspect ratio : 16:9
Frame rate : 25.000 fps
Color space : YUV
Chroma subsampling : 4:2:0
Bit depth : 8 bits
Scan type : Progressive
Compression mode : Lossy
Bits/(Pixel*Frame) : 0.248
Stream size : 674 MiB (90%)
Writing library : XviD 65

Audio
ID : 1
Format : AC-3
Format/Info : Audio Coding 3
Mode extension : CM (complete main)
Format settings, Endianness : Big
Codec ID : 2000
Duration : 52mn 47s
Bit rate mode : Constant
Bit rate : 192 Kbps
Channel(s) : 2 channels
Channel positions : Front: L R
Sampling rate : 48.0 KHz
Bit depth : 16 bits
Compression mode : Lossy
Stream size : 72.5 MiB (10%)
Alignment : Split accross interleaves
Interleave, duration : 40 ms (1.00 video frame)
Interleave, preload duration : 500 ms

piratbit.org



Скачать
Чтобы иметь возможность скачивать с Торрент Трекера, нужно Зарегистрироваться

Как скачивать  ·  Рейтинг и ограничения

28-11-2019 20:33  

Отключить всю рекламу на сайте

    Дорогой пользователь! Огромная просьба, поблагодарите релизера, оцените раздачу и оставьте свои комментарий, если Вы скачали RT. Кирк Бладсуорт. Осуждённый на казнь через торрент бесплатно! Внесите свою лепту в развитие PiratBit!
    Комментировать посты могут только пользователи прошедшие не сложную регистрацию
    Показать сообщения:    

    RT. Кирк Бладсуорт. Осуждённый на казнь через торрент
    Скачать бесплатно RT. Кирк Бладсуорт. Осуждённый на казнь
    RT. Кирк Бладсуорт. Осуждённый на казнь скачать торрент
    RT. Кирк Бладсуорт. Осуждённый на казнь смотреть онлайн
    Cкачать фильм RT. Кирк Бладсуорт. Осуждённый на казнь бесплатно
    RT. Кирк Бладсуорт. Осуждённый на казнь скачать торрент в хорошем качестве
    RT. Кирк Бладсуорт. Осуждённый на казнь смотреть онлайн бесплатно в хорошем качестве


    Вы не можете начинать темы
    Вы не можете отвечать на сообщения
    Вы не можете редактировать свои сообщения
    Вы не можете удалять свои сообщения
    Вы не можете голосовать в опросах
    Вы не можете прикреплять файлы к сообщениям
    Вы не можете скачивать файлы