1 сезон

3 сезон

iTunes

1

iTunes

DUB Netflix

iTunes

13

1 сезон

RePack

30

Deluxe

pack

Легкие деньги

ВАЖНО

ИГРА 18+

pack

RePack

MK11

RePack

jed

RePack

fifa19

RePack

RDR2

RePack

NEED FOR SPEED™ PAYBACK

4 сезон

9 сезон

Бесстыжие 9 сезон

Все сериалы

все сериалы на PB.wtf

RePack

FAR CRY 5

Anonymous, доброй ночи, мы не успеваем до 1 числа собрать деньги на оплату серверов, помогите нам пожалуйста в это трудное время. В качестве благодарности мы отключим Вам всю рекламу на сайте (укажите свой ник в строку Ваше имя)!

×
  
Magnet ссылка

Восставший / Воскресение Христа / Risen (Кевин Рейнольдс) [2016 г., боевик, драма, детектив, приключения, HDRip, Профессиональный многоголосый закадровый "BD CEE"] piratbit.org

Восставший через торрент piratbit.org

Размер: 2.19 GB | Добавлен: 4 года 5 мес. назад | Торрент скачан:200 раз
Скачать  

27-12-2016 18:08 Восставший Скачать торрент  

Восставший / Воскресение Христа / Risen
Год выпуска: 2016
Страна: США / LD Entertainment, Affirm Films, Columbia Pictures
Жанр: боевик, драма, детектив, приключения
Продолжительность: 01:47:38
Перевод: Профессиональный многоголосый закадровый (BD CEE)

Режиссер: Кевин Рейнольдс

rating


В ролях: Джозеф Файнс, Том Фелтон, Питер Фёрт, Клифф Кёртис, Мария Ботто, Луис Кальехо, Антонио Хиль-Мартинес, Ричард Этуилл, Стюарт Скудамор, Энди Гэтергуд

Описание: 33 год н. э. Римскому трибуну в Иудее дано задание найти пропавшее тело распятого накануне еврея, который, судя по слухам, воскрес.

Качество: HDRip
Формат: AVI
Видео кодек: XviD
Аудио кодек: AC3
Видео: 720x304 (2.37:1), 23.976 fps, XviD build 50 ~2458 kbps avg, 0.47 bit/pixel
Аудио: 48 kHz, AC3 Dolby Digital, 3/2 (L,C,R,l,r) + LFE ch, ~448 kbps

Общее
Полное имя : F:\ФИЛЬМЫ\Восставший.2016.HDRip.avi
Формат : AVI
Формат/Информация : Audio Video Interleave
Профиль формата : OpenDML
Размер файла : 2,19 Гбайт
Продолжительность : 1 ч. 47 м.
Общий поток : 2913 Кбит/сек
Программа кодирования : VirtualDubMod 1.5.10.3 | www.virtualdub-fr.org || (build 2550/release)
Библиотека кодирования : VirtualDubMod build 2550/release

Видео
Идентификатор : 0
Формат : MPEG-4 Visual
Профиль формата : Advanced Simple@L5
Параметр BVOP формата : 1
Параметр QPel формата : Нет
Параметр GMC формата : Без точки перехода
Параметр матрицы формата : Default (MPEG)
Идентификатор кодека : XVID
Идентификатор кодека/Подсказка : XviD
Продолжительность : 1 ч. 47 м.
Битрейт : 2453 Кбит/сек
Ширина : 720 пикселей
Высота : 304 пикселя
Соотношение сторон : 2,35:1
Частота кадров : 23,976 (24000/1001) кадра/сек
Цветовое пространство : YUV
Субдискретизация насыщенности : 4:2:0
Битовая глубина : 8 бит
Тип развёртки : Прогрессивная
Метод сжатия : С потерями
Бит/(Пиксели*Кадры) : 0.468
Размер потока : 1,84 Гбайт (84%)
Библиотека кодирования : XviD 1.2.1 (UTC 2008-12-04)

Аудио
Идентификатор : 1
Формат : AC-3
Формат/Информация : Audio Coding 3
Расширение режима : CM (complete main)
Параметр Endianness формата : Big
Идентификатор кодека : 2000
Продолжительность : 1 ч. 47 м.
Вид битрейта : Постоянный
Битрейт : 448 Кбит/сек
Каналы : 6 каналов
Расположение каналов : Front: L C R, Side: L R, LFE
Частота : 48,0 КГц
Частота кадров : 31,250 кадров/сек (1536 spf)
Битовая глубина : 16 бит
Метод сжатия : С потерями
Размер потока : 345 Мбайт (15%)
Выравнивание : Разделение по промежуткам
Продолжительность промежутка : 42 мс. (1,00 видеокадр)
Время предзагрузки промежутка : 500 мс.

piratbit.org



Скачать Восставший через торрент http://i86.fastpic.ru/big/2016/1227/ed/b080e705c65d4230a03da3af8bc163ed.png Скачать фильм Восставший через торрент бесплантно в хорошем качестве Описание: 33 год н. э. Римскому трибуну в Иудее дано задание найти пропавшее тело распятого накануне еврея, который, судя по слухам, ... 8.9 10 8
Торрент: Зарегистрирован [2016-12-27 18:08] · скачан: 200 раз
Статус: √ проверено
Размер: 2.19 GB
Как cкачать? Как скачать Восставший через торрент | UTorrent



Последний раз редактировалось: coc900 (2016-12-27 18:47), всего редактировалось 1 раз

28-11-2019 20:33  

Отключить всю рекламу на сайте

27-12-2016 18:19 Восставший Скачать торрент  

coc900 писал(а):

Видео: 720x304

coc900, скриншоты не соответствуют заявленному разрешению, перезалейте.piratbit.org



27-12-2016 18:47 Восставший Скачать торрент  

-Lexx-,

-Lexx- писал(а):

coc900 писал(а):

Видео: 720x304

coc900, скриншоты не соответствуют заявленному разрешению, перезалейте.

исправилpiratbit.org



    Дорогой пользователь! Огромная просьба, поблагодарите релизера, оцените раздачу и оставьте свои комментарий, если Вы скачали Восставший через торрент бесплатно! Внесите свою лепту в развитие PiratBit!
    Комментировать посты могут только пользователи прошедшие не сложную регистрацию
    Показать сообщения:    

    Восставший через торрент
    Скачать бесплатно Восставший
    Восставший скачать торрент
    Восставший смотреть онлайн
    Cкачать фильм Восставший бесплатно
    Восставший скачать торрент в хорошем качестве
    Восставший смотреть онлайн бесплатно в хорошем качестве


    Вы не можете начинать темы
    Вы не можете отвечать на сообщения
    Вы не можете редактировать свои сообщения
    Вы не можете удалять свои сообщения
    Вы не можете голосовать в опросах
    Вы не можете прикреплять файлы к сообщениям
    Вы можете скачивать файлы