1 сезон

3 сезон

iTunes

1

iTunes

DUB Netflix

iTunes

13

1 сезон

RePack

30

Deluxe

pack

Легкие деньги

ВАЖНО

ИГРА 18+

pack

RePack

MK11

RePack

jed

RePack

fifa19

RePack

RDR2

RePack

NEED FOR SPEED™ PAYBACK

4 сезон

9 сезон

Бесстыжие 9 сезон

Все сериалы

все сериалы на PB.wtf

RePack

FAR CRY 5

Anonymous, добрый вечер, мы не успеваем до 1 числа собрать деньги на оплату серверов, помогите нам пожалуйста в это трудное время. В качестве благодарности мы отключим Вам всю рекламу на сайте (укажите свой ник в строку Ваше имя)!

×
  
Magnet ссылка

Расплата / The Accountant (Гэвин О’Коннор) [2016, боевик, триллер, драма, криминал, HDRip] DUB [Лицензия / iTunes] piratbit.org

Расплата через торрент piratbit.org

Качают: 1 [ 0 KB/s ]
Размер: 748 MB | Добавлен: 4 года 5 мес. назад | Торрент скачан:108 раз
Скачать  

28-12-2016 08:10 Расплата Скачать торрент  

Расплата / The Accountant
Год выпуска: 2016
Страна: США
Жанр: боевик, триллер, драма, криминал
Продолжительность: 02:07:54
Перевод: Дубляж - [Лицензия / iTunes]
Субтитры: Русские форсированные (отдельно)

Режиссер: Гэвин О’Коннор

rating

В ролях:

Бен Аффлек, Анна Кендрик, Дж.К. Симмонс, Джон Бернтал, Джеффри Тэмбор, Синтия Аддай-Робинсон, Джон Литгоу, Джин Смарт, Энди Умбергер, Элисон Райт

Описание:

Лента расскажет историю математического гения Кристиана Вульфа, который подрабатывает аудитором для самых опасных преступных организаций. Когда ему «на хвост» садится отдел по борьбе с преступностью Министерства финансов во главе с Рэем Кингом Кристиан решает найти себе законопослушного клиента и проводит аудит в компании по производству новейшей робототехники, где сотрудница финансового отдела обнаружила «нестыковочку» в миллионы долларов. Но стоит Кристиану взяться за счета и выйти на след, как в деле начинают появляться жертвы.

Качество: HDRip
Формат: AVI
Видео кодек: XviD
Аудио кодек: MP3

Видео: 640x272 (2.39:1), 23.976 fps, XviD build 73 ~684 kbps avg, 0.164 bit/pixel
Аудио#1: 48.0 kHz, MP3 Dolby Digital, 2 ch, ~128 kbps
Общее
Полное имя : C:\The.Accountant.2016.HDRip.745MB.D.MegaPeer.avi
Формат : AVI
Формат/Информация : Audio Video Interleave
Размер файла : 748 Мбайт
Продолжительность : 2 ч. 7 м.
Общий поток : 817 Кбит/сек

Видео
Идентификатор : 0
Формат : MPEG-4 Visual
Профиль формата : Advanced Simple@L5
Параметр BVOP формата : 1
Параметр QPel формата : Нет
Параметр GMC формата : Без точки перехода
Параметр матрицы формата : Выборочная
Идентификатор кодека : XVID
Идентификатор кодека/Подсказка : XviD
Продолжительность : 2 ч. 7 м.
Битрейт : 683 Кбит/сек
Ширина : 640 пикселей
Высота : 272 пикселя
Соотношение сторон : 2,35:1
Частота кадров : 23,976 (24000/1001) кадра/сек
Цветовое пространство : YUV
Субдискретизация насыщенности : 4:2:0
Битовая глубина : 8 бит
Тип развёртки : Прогрессивная
Метод сжатия : С потерями
Бит/(Пиксели*Кадры) : 0.164
Размер потока : 625 Мбайт (84%)
Библиотека кодирования : XviD 73

Аудио
Идентификатор : 1
Формат : MPEG Audio
Версия формата : Version 1
Профиль формата : Layer 3
Режим : Joint stereo
Расширение режима : MS Stereo
Идентификатор кодека : 55
Идентификатор кодека/Подсказка : MP3
Продолжительность : 2 ч. 7 м.
Вид битрейта : Постоянный
Битрейт : 128 Кбит/сек
Каналы : 2 канала
Частота : 48,0 КГц
Метод сжатия : С потерями
Размер потока : 117 Мбайт (16%)
Выравнивание : Соединение по промежуткам
Продолжительность промежутка : 167 мс. (4,00 видеокадра)
Время предзагрузки промежутка : 216 мс.
Заголовок : iTunes
Библиотека кодирования : LAME3.99r
Настройки программы : -m j -V 4 -q 2 -lowpass 17 -b 128

Общее
Полное имя : C:\The.Accountant.2016.HDRip.745MB.D.MegaPeer.srt
Формат : SubRip
Размер файла : 2,64 Кбайт

Текст
Формат : SubRip
Метод сжатия : Без потерь
скриншот   скриншот   скриншот   скриншот  
piratbit.org



Скачать Расплата через торрент https://pic1.kartinco.top/images/11/bzwqg.jpg Скачать фильм Расплата через торрент бесплантно в хорошем качестве Описание: Лента расскажет историю математического гения Кристиана Вульфа, который подрабатывает аудитором для самых опасных преступных ... 10 10 7
Торрент: Зарегистрирован [2016-12-28 08:10] · скачан: 108 раз
Статус: √ проверено
Размер: 748 MB
Как cкачать? Как скачать Расплата через торрент | UTorrent

% Раздел Тема Автор DL S | L
Фильмы (HD 720p, 1080p) (48-60 fps) [ 5.53 GB ] Расплата / The Accountant [2016 WEB-DLRip 720p / 60 FPS ] от R.G. HD-Films slaventi-69 Скачать
13 | 0
Ultra HD (UHD: 2K, 4K, 8K) — видео сверхвысокой чёткости [ 59.37 GB ] Расплата / The Accountant [2016 UHD BDRemux 2160p] DUB + 6xAVO sheker187 Скачать
1 | 0
Фильмы [HD 720p, 1080p] (Хороший звук DUB, MVO) [ 7.65 GB ] Расплата / The Accountant [2016 BDRip-HEVC 1080p ] DUB [] bober100 Скачать
3 | 0
Фильмы 2016 [DVDrip, WEB-DLRip, HDrip] (DUB, MVO) [ 2.18 GB ] Расплата / The Accountant [2016 BDRip] - [] Twi7ter Скачать
9 | 0
Фильмы (Blu-ray, BD-Remux, HDDVD) [ 37.76 GB ] Расплата / The Accountant [2016 Blu-Ray CEE 1080p] DUB [] bober100 Скачать
2 | 0
Фильмы [HD 720p, 1080p] (Хороший звук DUB, MVO) [ 7.95 GB ] Расплата / The Accountant [2016 BDRip 720p от _denis_100 | NNNB] DUB + 3xAVO + VO + Original + Sub _denis_100 Скачать
1 | 0
Фильмы 2016 [DVDrip, WEB-DLRip, HDrip] (DUB, MVO) [ 1.46 GB ] Расплата / The Accountant [2016 BDRip] - [] Twi7ter Скачать
1 | 0


Последний раз редактировалось: bober100 (2016-12-28 08:49), всего редактировалось 3 раз(а)

28-11-2019 20:33  

Отключить всю рекламу на сайте

    Дорогой пользователь! Огромная просьба, поблагодарите релизера, оцените раздачу и оставьте свои комментарий, если Вы скачали Расплата через торрент бесплатно! Внесите свою лепту в развитие PiratBit!
    Комментировать посты могут только пользователи прошедшие не сложную регистрацию
    Показать сообщения:    

    Расплата через торрент
    Скачать бесплатно Расплата
    Расплата скачать торрент
    Расплата смотреть онлайн
    Cкачать фильм Расплата бесплатно
    Расплата скачать торрент в хорошем качестве
    Расплата смотреть онлайн бесплатно в хорошем качестве


    Вы не можете начинать темы
    Вы не можете отвечать на сообщения
    Вы не можете редактировать свои сообщения
    Вы не можете удалять свои сообщения
    Вы не можете голосовать в опросах
    Вы не можете прикреплять файлы к сообщениям
    Вы можете скачивать файлы