1 сезон

3 сезон

iTunes

1

iTunes

DUB Netflix

iTunes

13

1 сезон

RePack

30

Deluxe

pack

Легкие деньги

ВАЖНО

ИГРА 18+

pack

RePack

MK11

RePack

jed

RePack

fifa19

RePack

RDR2

RePack

NEED FOR SPEED™ PAYBACK

4 сезон

9 сезон

Бесстыжие 9 сезон

Все сериалы

все сериалы на PB.wtf

RePack

FAR CRY 5

Anonymous, доброй ночи, мы не успеваем до 1 числа собрать деньги на оплату серверов, помогите нам пожалуйста в это трудное время. В качестве благодарности мы отключим Вам всю рекламу на сайте (укажите свой ник в строку Ваше имя)!

×
  
Magnet ссылка

СашаТаня (Новогодняя серия) (Сергей Казачанский, Михаил Старчак, Андрей Богатырев) [2016, Россия, комедия, SATRip) piratbit.org

СашаТаня через торрент piratbit.org

Размер: 266 MB | Добавлен: 4 года 5 мес. назад | Торрент скачан:287 раз
Скачать  

28-12-2016 11:41 СашаТаня Скачать торрент  

СашаТаня


  • Год выпуска: 2016
  • Страна: Россия
  • Жанр: комедия
  • Продолжительность: 00:23:18
  • Перевод: Не требуется [Русский]
  • Режиссер: Сергей Казачанский, Михаил Старчак, Андрей Богатырев
  • В ролях:

    Андрей Гайдулян (Саша), Валентина Рубцова (Таня), Алексей Климушкин (Сильвестр Андреевич Сергеев), Андрей Свиридов (Гена), Алексей Гаврилов (Гоша Рудковский), Лариса Баранова (Лиля Волкова), Виталий Гогунский, Арарат Кещян, Наталья Ходус, Виктор Полторацкий (финансовый директор Сергей Геннадьевич), Павел Кассинский (сосед), Александр Новик (менеджер)


  • Сериал про молодую семью Сергеевых. После окончания института Саша и Таня вместе со своим маленьким сыном Алёшкой решили пожить самостоятельно и сняли квартиру в Алтуфьево. Райончик конечно не из лучших, но зато и цены на жилье тут доступные, ведь Саша не собирается пользоваться миллиардами своего папы. Но Сильвестр Андреевич не собирается так просто отставать от молодых и тем более от своего внука. Поэтому он поселился по соседству, только в просторной и роскошной квартире.
  • Рейтинг:



  • Качество: SATRip
  • Формат: :AVI
  • Видео кодек: XviD
  • Аудио кодек: MP3
  • Видео: 1542 Кбит/сек, 720*400 (16:9), в 25,000 кадров/сек, MPEG-4 Visual (XviD)
  • Аудио: 192 Кбит/сек, 48,0 КГц, 2 канала, MPEG Audio (MP3)
  • Релиз от: Files-x


    Общее
    Полное имя : H:\SashaTanja.Novogodnjaja.SATRip.avi
    Формат : AVI
    Формат/Информация : Audio Video Interleave
    Размер файла : 266 Мбайт
    Продолжительность : 21 м.
    Общий поток : 1744 Кбит/сек
    Программа кодирования : VirtualDubMod 1.5.10.3 (build 2550/release)
    Библиотека кодирования : VirtualDubMod build 2550/release

    Видео
    Идентификатор : 0
    Формат : MPEG-4 Visual
    Профиль формата : Advanced Simple@L5
    Параметр BVOP формата : 1
    Параметр QPel формата : Нет
    Параметр GMC формата : Без точки перехода
    Параметр матрицы формата : Default (H.263)
    Идентификатор кодека : XVID
    Идентификатор кодека/Подсказка : XviD
    Продолжительность : 21 м.
    Битрейт : 1542 Кбит/сек
    Ширина : 720 пикселей
    Высота : 400 пикселей
    Соотношение сторон : 16:9
    Частота кадров : 25,000 кадров/сек
    Цветовое пространство : YUV
    Субдискретизация насыщенности : 4:2:0
    Битовая глубина : 8 бит
    Тип развёртки : Прогрессивная
    Метод сжатия : С потерями
    Бит/(Пиксели*Кадры) : 0.214
    Размер потока : 235 Мбайт (88%)
    Библиотека кодирования : XviD 67

    Аудио
    Идентификатор : 1
    Формат : MPEG Audio
    Версия формата : Version 1
    Профиль формата : Layer 3
    Режим : Joint stereo
    Расширение режима : MS Stereo
    Идентификатор кодека : 55
    Идентификатор кодека/Подсказка : MP3
    Продолжительность : 21 м.
    Вид битрейта : Постоянный
    Битрейт : 192 Кбит/сек
    Каналы : 2 канала
    Частота : 48,0 КГц
    Метод сжатия : С потерями
    Размер потока : 29,3 Мбайт (11%)
    Выравнивание : Разделение по промежуткам
    Продолжительность промежутка : 40 мс. (1,00 видеокадр)
    Время предзагрузки промежутка : 500 мс.
    Библиотека кодирования : LAME3.99.5U\w‡…U:Й »

    Скриншоты:
    скриншот   скриншот   скриншот   скриншот   скриншот   скриншот   скриншот  
    скриншот  
    piratbit.org



  • Скачать СашаТаня через торрент https://pic1.kartinco.top/images/11/wvtdd.jpg Скачать фильм СашаТаня через торрент бесплантно в хорошем качестве qw.png Сериал про молодую семью Сергеевых. После окончания института Саша и Таня вместе со своим маленьким сыном Алёшкой решили пожить ... 10 10 4
    Торрент: Зарегистрирован [2016-12-28 11:41] · скачан: 287 раз
    Статус: √ проверено
    Размер: 266 MB
    Как cкачать? Как скачать СашаТаня через торрент | UTorrent

    % Раздел Тема Автор DL S | L
    TNT serials [ 58.65 GB ] СашаТаня / Сезон: 1-9 / Серии: 1-200 из 200 [2013-2019 WEB-DLRip] bober100 Скачать
    1 | 1
    TNT serials [ 6.31 GB ] СашаТаня / Сезон: 10 / Серии: 1-22 из 22 [2021 WEBRip-AVC] bober100 Скачать
    2 | 0
    TNT serials [ 22.33 GB ] СашаТаня / Сезон: 10 / Серии: 1-22 из 22 [2021 HDTV 1080i] bober100 Скачать
    1 | 0
    TNT serials [ 6.45 GB ] СашаТаня / Сезон: 10 / Серии: 1-22 из 22 [2021 WEBRip] bober100 Скачать
    2 | 0
    TNT serials [ 11.2 GB ] СашаТаня / Сезон: 10 / Серии: 1-22 из 22 [2021 WEBRip 720p] bober100 Скачать
    1 | 0
    TNT serials [ 16.46 GB ] СашаТаня / Сезон: 10 / Серии: 1-22 из 22 [2021 WEBRip 1080p] bober100 Скачать
    1 | 0
    TNT serials [ 6.68 GB ] СашаТаня / Сезон: 10 / Серии: 1-22 из 22 [2021 SATRip] bober100 Скачать
    1 | 0

    28-11-2019 20:33  

    Отключить всю рекламу на сайте

      Дорогой пользователь! Огромная просьба, поблагодарите релизера, оцените раздачу и оставьте свои комментарий, если Вы скачали СашаТаня через торрент бесплатно! Внесите свою лепту в развитие PiratBit!
      Комментировать посты могут только пользователи прошедшие не сложную регистрацию
      Показать сообщения:    

      СашаТаня через торрент
      Скачать бесплатно СашаТаня
      СашаТаня скачать торрент
      СашаТаня смотреть онлайн
      Cкачать фильм СашаТаня бесплатно
      СашаТаня скачать торрент в хорошем качестве
      СашаТаня смотреть онлайн бесплатно в хорошем качестве


      Вы не можете начинать темы
      Вы не можете отвечать на сообщения
      Вы не можете редактировать свои сообщения
      Вы не можете удалять свои сообщения
      Вы не можете голосовать в опросах
      Вы не можете прикреплять файлы к сообщениям
      Вы можете скачивать файлы