1 сезон

3 сезон

iTunes

1

iTunes

DUB Netflix

iTunes

13

1 сезон

RePack

30

Deluxe

pack

Легкие деньги

ВАЖНО

ИГРА 18+

pack

RePack

MK11

RePack

jed

RePack

fifa19

RePack

RDR2

RePack

NEED FOR SPEED™ PAYBACK

4 сезон

9 сезон

Бесстыжие 9 сезон

Все сериалы

все сериалы на PB.wtf

RePack

FAR CRY 5

Anonymous, добрый день, мы не успеваем до 1 числа собрать деньги на оплату серверов, помогите нам пожалуйста в это трудное время. В качестве благодарности мы отключим Вам всю рекламу на сайте (укажите свой ник в строку Ваше имя)!

×
  
Magnet ссылка

Шпионы по соседству / Keeping Up with the Joneses (Грег Моттола) [2016, боевик, комедия, WEB-DLRip] Дубляж - [Лицензия / iTunes] piratbit.org

Шпионы по соседству через торрент piratbit.org

Размер: 1.36 GB | Добавлен: 4 года 5 мес. назад | Торрент скачан:1844 раза
Скачать  

29-12-2016 20:34 Шпионы по соседству Скачать торрент  


Шпионы по соседству / Keeping Up with the Joneses
««Лицензия на мокруху. Лицензия на бытовуху»»

ИНФОРМАЦИЯ:
Год выпуска:2016
Страна: США
Жанр: боевик, комедия
Продолжительность: 01:46:01
Перевод: Дубляж - [Лицензия / iTunes]
Режиссер: Грег Моттола

В Ролях:


Зак Галифианакис (Jeff Gaffney), Айла Фишер (Karen Gaffney), Джон Хэмм (Tim Jones), Галь Гадот (Natalie Jones), Пэттон Освальт (Scorpion), Минг Жао (Scorpion's Girlfriend), Мэтт Уолш (Dan Craverston), Мэрибет Монро (Meg Craverston), Майкл Лью (Yang), Кевин Данн (Carl Pronger), Дайо Абаниканда (Cool Man), Генри Бостон (Patrick)

ОПИСАНИЕ:
Супружеская пара из пригорода оказывается втянутой в международный шпионский заговор, когда обнаруживает, что их, казалось бы, идеальные новые соседи являются правительственными агентами.

  • Мировая премьера:19 октября 2016

    ТЕХ.ДАННЫЕ:
    Качество: WEB-DLRip
    Формат: AVI
    Видео: XviD, 720x304 (2.35:1), 1451 kbps, 23,976 fps, 0,277 bpp
    Аудио: AC3 / 5.1 / 48 kHz / 384 kbps /


    General
    Complete name : W:\Торенты\SHpUeny.Po.SoSeDsTvU.2O16.D.WEB-DLRip.14OOMB_KOSHARA.avi
    Format : AVI
    Format/Info : Audio Video Interleave
    File size : 1.36 GiB
    Duration : 1 h 46 min
    Overall bit rate : 1 843 kb/s
    Writing application : VirtualDubMod 1.5.10.2 (build 2540/release)
    Writing library : VirtualDubMod build 2540/release

    Video
    ID : 0
    Format : MPEG-4 Visual
    Format profile : Advanced Simple@L5
    Format settings, BVOP : 2
    Format settings, QPel : No
    Format settings, GMC : No warppoints
    Format settings, Matrix : Default (MPEG)
    Codec ID : XVID
    Codec ID/Hint : XviD
    Duration : 1 h 46 min
    Bit rate : 1 452 kb/s
    Width : 720 pixels
    Height : 304 pixels
    Display aspect ratio : 2.35:1
    Frame rate : 23.976 (24000/1001) FPS
    Color space : YUV
    Chroma subsampling : 4:2:0
    Bit depth : 8 bits
    Scan type : Progressive
    Compression mode : Lossy
    Bits/(Pixel*Frame) : 0.277
    Stream size : 1.08 GiB (79%)
    Writing library : XviD 1.2.1 (UTC 2008-12-04)

    Audio
    ID : 1
    Format : AC-3
    Format/Info : Audio Coding 3
    Mode extension : CM (complete main)
    Format settings, Endianness : Big
    Codec ID : 2000
    Duration : 1 h 45 min
    Bit rate mode : Constant
    Bit rate : 384 kb/s
    Channel(s) : 6 channels
    Channel positions : Front: L C R, Side: L R, LFE
    Sampling rate : 48.0 kHz
    Frame rate : 31.250 FPS (1536 spf)
    Compression mode : Lossy
    Stream size : 289 MiB (21%)
    Alignment : Split accross interleaves
    Interleave, duration : 42 ms (1.01 video frame)
    Interleave, preload duration : 500 ms
    Скриншоты:



    © Оформление by .::Ворон::.
    piratbit.org



  • Скачать Шпионы по соседству через торрент https://pic1.kartinco.top/images/61/ordi9.jpg Скачать фильм Шпионы по соседству через торрент бесплантно в хорошем качестве Е:Супружеская пара из пригорода оказывается втянутой в международный шпионский заговор, когда обнаруживает, что их, казалось бы, идеальные ... 9.4 10 43
    Info! Золотая раздача, скачанное не засчитывается.
    Торрент: Зарегистрирован [2016-12-29 20:34] · скачан: 1 844 раз
    Статус: √ проверено
    Размер: 1.36 GB
    Как cкачать? Как скачать Шпионы по соседству через торрент | UTorrent

    % Раздел Тема Автор DL S | L
    Фильмы (WEB-DL 720p, 1080p) [ 4.26 GB ] Шпионы по соседству / Keeping Up with the Joneses [2016 WEBRip 1080p] [Open Matte] Russian Mafia Скачать
    1 | 0
    Фильмы 2016 [DVDrip, WEB-DLRip, HDrip] (DUB, MVO) [ 2.18 GB ] Шпионы по соседству / Keeping Up with the Joneses [2016 WEB-DLRip] [Open Matte / Локализованный видеоряд] killermax2013 Скачать
    1 | 0
    Фильмы (WEB-DL 720p, 1080p) [ 4.32 GB ] Шпионы по соседству / Keeping Up with the Joneses [2016 WEB-DL 1080p] [Open Matte / Локализованный видеоряд] killermax2013 Скачать
    1 | 0
    Ultra HD (UHD: 2K, 4K, 8K) — видео сверхвысокой чёткости [ 29.8 GB ] Шпионы по соседству / Keeping Up with the Joneses [2016 UHD BDRemux 2160p] DUB [] sheker187 Скачать
    1 | 0
    Ultra HD (UHD: 2K, 4K, 8K) — видео сверхвысокой чёткости [ 54.62 GB ] Шпионы по соседству / Keeping Up with the Joneses [2016 UHD WEBRip 2160p] - [] sheker187 Скачать
    1 | 0
    Фильмы (Blu-ray, BD-Remux, HDDVD) [ 24.24 GB ] Шпионы по соседству / Keeping Up with the Joneses [2016 BDRemux 1080p] - [] -Lexx- Скачать
    1 | 0
    Фильмы 2016 [DVDrip, WEB-DLRip, HDrip] (DUB, MVO) [ 1.46 GB ] Шпионы по соседству / Keeping Up with the Joneses [2016 BDRip] - [] Twi7ter Скачать
    1 | 0

    28-11-2019 20:33  

    Отключить всю рекламу на сайте

      Дорогой пользователь! Огромная просьба, поблагодарите релизера, оцените раздачу и оставьте свои комментарий, если Вы скачали Шпионы по соседству через торрент бесплатно! Внесите свою лепту в развитие PiratBit!
      Комментировать посты могут только пользователи прошедшие не сложную регистрацию
      Показать сообщения:    

      Шпионы по соседству через торрент
      Скачать бесплатно Шпионы по соседству
      Шпионы по соседству скачать торрент
      Шпионы по соседству смотреть онлайн
      Cкачать фильм Шпионы по соседству бесплатно
      Шпионы по соседству скачать торрент в хорошем качестве
      Шпионы по соседству смотреть онлайн бесплатно в хорошем качестве


      Вы не можете начинать темы
      Вы не можете отвечать на сообщения
      Вы не можете редактировать свои сообщения
      Вы не можете удалять свои сообщения
      Вы не можете голосовать в опросах
      Вы не можете прикреплять файлы к сообщениям
      Вы можете скачивать файлы