2 сезон

iTunes

MVO

1

2 сезон

iTunes

iTunes

1 сезон

RePack

30

Ultimate

ВАЖНО

ИГРА 18+

pack

RePack

MK11
pack

Легкие деньги

RePack

jed

RePack

fifa19

RePack

RDR2

RePack

NEED FOR SPEED™ PAYBACK

4 сезон

9 сезон

Бесстыжие 9 сезон

Все сериалы

все сериалы на PB.wtf

RePack

FAR CRY 5

Anonymous, доброй ночи, мы не успеваем собрать деньги на оплату серверов за декабрь и январь, помогите нам пожалуйста в это трудное время. В качестве благодарности мы отключим Вам всю рекламу на сайте (укажите свой ник в строку Ваше имя)!

×
  
Magnet ссылка

Романовы. Мистика царской династии [2013 г., Документальный,история, биография, мистика, политика SATRip] Русский] R.G.Resident piratbit.org

Скачать  

30-12-2016 13:08 Романовы. Мистика царской династии Скачать торрент  

Романовы. Мистика царской династии
Оригинальное название: Романовы. Мистика царской династии
Год выпуска: 2013
Жанр: Документальный, история, биография, мистика, политика
Выпущено: Россия, ОАО "Первый канал"
Режиссер: Людмила Снигирева

О фильме: Вот уже почти сто лет историки и исследователи ищут ответ - почему российская царская династия прервалась столь внезапно и трагически. Авторы фильма предлагают особый взгляд на историю рода. Причины гибели династии они ищут не только в событиях начала 20 века, но и во всей истории трехвекового правления Романовых. Семейные тайны не давали покоя последнему российскому императору Николаю II и отчасти предопределили печальную участь царской семьи. Николай II верил, что погибнет именно в 1918-м. Об этом говорили полученные им в разные годы предсказания. Себя он считал жертвой, необходимой для искупления грехов царственных предков. Прошлое роковым образом влияло на его поступки и решения. О роли мистических совпадений в жизни Николая II расскажут историки, биографы Николая II, исследователи и представители РПЦ.

Качество: SATRip
Видео: XviD, 1386 Кбит/с, 704x384
Аудио: AC3, 2 ch, 192 Кбит/с
Продолжительность: 00:48:28
Язык: Русский
Релиз от: ruslanishe

General
Romanovy.mistika.carskoj.dinastii.XviD.2013.SATRip.R.G.Resident.avi
Format : AVI
Format/Info : Audio Video Interleave
File size : 550 MiB
Duration : 48mn 27s
Overall bit rate : 1 587 Kbps
Writing application : VirtualDubMod 1.5.10.3 | www.virtualdub-fr.org || (build 2550/release)
Writing library : VirtualDubMod build 2550/release

Video
ID : 0
Format : MPEG-4 Visual
Format profile : Advanced Simple@L5
Format settings, BVOP : 2
Format settings, QPel : No
Format settings, GMC : No warppoints
Format settings, Matrix : Custom
Codec ID : XVID
Codec ID/Hint : XviD
Duration : 48mn 27s
Bit rate : 1 386 Kbps
Width : 704 pixels
Height : 384 pixels
Display aspect ratio : 1.85:1
Frame rate : 23.976 fps
Color space : YUV
Chroma subsampling : 4:2:0
Bit depth : 8 bits
Scan type : Progressive
Compression mode : Lossy
Bits/(Pixel*Frame) : 0.214
Stream size : 480 MiB (87%)
Writing library : XviD 65

Audio
ID : 1
Format : AC-3
Format/Info : Audio Coding 3
Mode extension : CM (complete main)
Format settings, Endianness : Big
Codec ID : 2000
Duration : 48mn 27s
Bit rate mode : Constant
Bit rate : 192 Kbps
Channel(s) : 2 channels
Channel positions : Front: L R
Sampling rate : 48.0 KHz
Bit depth : 16 bits
Compression mode : Lossy
Stream size : 66.6 MiB (12%)
Alignment : Split accross interleaves
Interleave, duration : 42 ms (1.00 video frame)
Interleave, preload duration : 500 ms
piratbit.org



Скачать
Чтобы иметь возможность скачивать с Торрент Трекера, нужно Зарегистрироваться

Как скачивать  ·  Рейтинг и ограничения

28-11-2019 20:33  

Отключить всю рекламу на сайте


    Дорогой пользователь! Огромная просьба, поблагодарите релизера, оцените раздачу и оставьте свои комментарий, если Вы скачали Романовы. Мистика царской династии через торрент бесплатно! Внесите свою лепту в развитие PiratBit!
    Комментировать посты могут только пользователи прошедшие не сложную регистрацию
    Показать сообщения:    

    Романовы. Мистика царской династии через торрент
    Скачать бесплатно Романовы. Мистика царской династии
    Романовы. Мистика царской династии скачать торрент
    Романовы. Мистика царской династии смотреть онлайн
    Cкачать фильм Романовы. Мистика царской династии бесплатно
    Романовы. Мистика царской династии скачать торрент в хорошем качестве
    Романовы. Мистика царской династии смотреть онлайн бесплатно в хорошем качестве


    Вы не можете начинать темы
    Вы не можете отвечать на сообщения
    Вы не можете редактировать свои сообщения
    Вы не можете удалять свои сообщения
    Вы не можете голосовать в опросах
    Вы не можете прикреплять файлы к сообщениям
    Вы не можете скачивать файлы