1 сезон

3 сезон

iTunes

1

iTunes

DUB Netflix

iTunes

13

1 сезон

RePack

30

Deluxe

pack

Легкие деньги

ВАЖНО

ИГРА 18+

pack

RePack

MK11

RePack

jed

RePack

fifa19

RePack

RDR2

RePack

NEED FOR SPEED™ PAYBACK

4 сезон

9 сезон

Бесстыжие 9 сезон

Все сериалы

все сериалы на PB.wtf

RePack

FAR CRY 5

Anonymous, добрый вечер, мы не успеваем до 1 числа собрать деньги на оплату серверов, помогите нам пожалуйста в это трудное время. В качестве благодарности мы отключим Вам всю рекламу на сайте (укажите свой ник в строку Ваше имя)!

×
  
Magnet ссылка

Бета-тест / Beta Test (Николас Гини) [2016 г., Фантастика, боевик, триллер, WEB-DLRip] Профессиональное многоголосое [Официальный звук] piratbit.org

Бета-тест через торрент piratbit.org

Размер: 1.37 GB | Добавлен: 4 года 5 мес. назад | Торрент скачан:983 раза
Скачать  

31-12-2016 10:15 Бета-тест Скачать торрент  

Бета-тест / Beta Test Год выпуска: 2016
Страна: США
Жанр: Фантастика, боевик, триллер
Продолжительность: 01:28:00
Перевод: Профессиональное (многоголосое) [Официальный звук]
Субтитры: Отсутствуют

Режиссер: Николас Гини

Премьера в мире: 22 июля 2016

rating

В ролях: Ману Беннетт, Лоренц Тейт, Линден Эшби, Кивон Стоувер, Брэнди Хейдрик, Сара Коутс, Юдзи Окумото, Е.М. Скотт, Edi Zanidache, Билл Сорис

Описание: Главный герой, Макс, мужчина среднего возраста, который помешан на компьютерных играх. И чтобы никогда не отказываться от любимого занятия, он устроился работать в компанию по тестированию новых игрушек. Сейчас ему необходимо провести тестирование новой игры, он начнет в нее играть и поймет, что игра не самая обычная, непонятным для него образом она связана с реальностью. В итоге то, что происходит в виртуальном игровом мире, затем и по-настоящему случается. Макс станет косвенным виновником некоторых нехороших вещей и это будет необходимо как-то исправлять.

После этой ситуации главный герой начинает задумываться о том, что возможно и предыдущие игры, в которые он играл на самом деле были реальными, и он этого просто не замечал.

Доп. информация: Релиз без рекламы!

Качество: WEB-DLRip
Формат: AVI
Видео кодек: XviD
Аудио кодек: AC3
Видео: XviD,720x304,(2.35:1), 23.976 fps, 2021 Кбит/с,
Аудио#1: AC-3,192 kb/s, 2 ch, 48.0 KHz,16 bits
скриншот  скриншот  скриншот  скриншот  скриншот  

General
Complete name : C:\Users\Home\Desktop\Beta_Test_2O16_.avi
Format : AVI
Format/Info : Audio Video Interleave
File size : 1.37 GiB
Duration : 1 h 28 min
Overall bit rate : 2 222 kb/s
Writing application : VirtualDubMod 1.5.10.2 (build 2540/release)
Writing library : VirtualDubMod build 2540/release

Video
ID : 0
Format : MPEG-4 Visual
Format profile : Advanced Simple@L5
Format settings, BVOP : 2
Format settings, QPel : No
Format settings, GMC : No warppoints
Format settings, Matrix : Default (MPEG)
Codec ID : XVID
Codec ID/Hint : XviD
Duration : 1 h 28 min
Bit rate : 2 021 kb/s
Width : 720 pixels
Height : 304 pixels
Display aspect ratio : 2.35:1
Frame rate : 23.976 (24000/1001) FPS
Color space : YUV
Chroma subsampling : 4:2:0
Bit depth : 8 bits
Scan type : Progressive
Compression mode : Lossy
Bits/(Pixel*Frame) : 0.385
Stream size : 1.24 GiB (91%)
Writing library : XviD 1.2.1 (UTC 2008-12-04)

Audio
ID : 1
Format : AC-3
Format/Info : Audio Coding 3
Mode extension : CM (complete main)
Format settings, Endianness : Big
Codec ID : 2000
Duration : 1 h 28 min
Bit rate mode : Constant
Bit rate : 192 kb/s
Channel(s) : 2 channels
Channel positions : Front: L R
Sampling rate : 48.0 kHz
Frame rate : 31.250 FPS (1536 spf)
Bit depth : 16 bits
Compression mode : Lossy
Stream size : 121 MiB (9%)
Alignment : Split accross interleaves
Interleave, duration : 42 ms (1.00 video frame)
Interleave, preload duratio : 500 ms

piratbit.org



Скачать Бета-тест через торрент https://pic1.kartinco.top/images/11/2ecrg.jpg Скачать фильм Бета-тест через торрент бесплантно в хорошем качестве Описание: Главный герой, Макс, мужчина среднего возраста, который помешан на компьютерных играх. И чтобы никогда не отказываться от ... 9 10 25
Торрент: Зарегистрирован [2016-12-31 10:27] · скачан: 983 раз
Статус: T временная
Размер: 1.37 GB
Как cкачать? Как скачать Бета-тест через торрент | UTorrent



Последний раз редактировалось: sanekbest1 (2016-12-31 10:44), всего редактировалось 5 раз(а)

28-11-2019 20:33  

Отключить всю рекламу на сайте

31-12-2016 10:32 Бета-тест Скачать торрент  

31-12-2016 10:37 Бета-тест Скачать торрент  

schultz писал(а):


да у меня вроде все закрыто?piratbit.org



31-12-2016 10:41 Бета-тест Скачать торрент  

Бета-тест / Beta Test (Николас Гини) [2016 г., Фантастика, боевик, триллер, WEB-DLRip,Профессиональное (многоголосое) [Официальный звук]piratbit.org



31-12-2016 11:54 Бета-тест Скачать торрент  

как фильмец пиплы? с наступающим НГpiratbit.org



31-12-2016 12:20 Бета-тест Скачать торрент  

fanta86 писал(а):

как фильмец пиплы? с наступающим НГ

скачай, и узнаешь )
и тебя с наступающим!piratbit.org



31-12-2016 14:57 Бета-тест Скачать торрент  

На последнем скрине...что там страшное происходит с мужиком???)))
piratbit.org



31-12-2016 15:07 Бета-тест Скачать торрент  

fanta86 писал(а):

как фильмец пиплы? с наступающим НГ

я посмотрел на перемотке мне непондравилось удалил поэтому сложно сказать я думаю тут надо самому решатьpiratbit.org



02-01-2017 07:50 Бета-тест Скачать торрент  

Serafimus81 писал(а):

На последнем скрине...что там страшное происходит с мужиком???)))

В два:-)piratbit.org



06-01-2017 11:48 Бета-тест Скачать торрент  

fanta86 писал(а):

как фильмец пиплы? с наступающим НГ

фильмец на уровне индийского киноpiratbit.org



06-01-2017 17:36 Бета-тест Скачать торрент  

показалось какой-то детскийpiratbit.org



    Дорогой пользователь! Огромная просьба, поблагодарите релизера, оцените раздачу и оставьте свои комментарий, если Вы скачали Бета-тест через торрент бесплатно! Внесите свою лепту в развитие PiratBit!
    Комментировать посты могут только пользователи прошедшие не сложную регистрацию
    Показать сообщения:    

    Бета-тест через торрент
    Скачать бесплатно Бета-тест
    Бета-тест скачать торрент
    Бета-тест смотреть онлайн
    Cкачать фильм Бета-тест бесплатно
    Бета-тест скачать торрент в хорошем качестве
    Бета-тест смотреть онлайн бесплатно в хорошем качестве


    Вы не можете начинать темы
    Вы не можете отвечать на сообщения
    Вы не можете редактировать свои сообщения
    Вы не можете удалять свои сообщения
    Вы не можете голосовать в опросах
    Вы не можете прикреплять файлы к сообщениям
    Вы можете скачивать файлы