2 сезон

iTunes

WEBRip

1

2 сезон

iTunes

1 сезон

1 сезон

RePack

30

Новинка

ВАЖНО

ИГРА 18+

pack

RePack

MK11
pack

Легкие деньги

RePack

jed

RePack

fifa19

RePack

RDR2

RePack

NEED FOR SPEED™ PAYBACK

4 сезон

9 сезон

Бесстыжие 9 сезон

Все сериалы

все сериалы на PB.wtf

RePack

FAR CRY 5

Anonymous, доброй ночи, мы не успеваем собрать деньги на оплату серверов за февраль, помогите нам пожалуйста в это трудное время. В качестве благодарности мы отключим Вам всю рекламу на сайте (укажите свой ник в строку Ваше имя)!

×
  
Magnet ссылка

Шерлок / Sherlock / Сезон: 4 / Серии: 1-2 из 3 (Дуглас МакКиннон) [2017, триллер, драма, криминал, детектив, WEB-DL 1080p] [Ukr DUB] + [Sub] (Eng) piratbit.org

Шерлок через торрент piratbit.org

Размер: 8.87 GB | Добавлен: 4 года 1 мес. назад | Торрент скачан:63 раза
Скачать  

03-01-2017 08:26 Шерлок Скачать торрент  

Шерлок / Sherlock
Год выхода: 2017
Жанр: триллер, драма, криминал, детектив
Страна: Великобритания
Продолжительность: ~ 01:30:00
Перевод: Украинский (дублированный)
Субтитры: английские (*.srt)

Режиссер: Дуглас МакКиннон

В ролях: Бенедикт Камбербэтч, Мартин Фриман, Уна Стаббс, Лу Брили, Руперт Грэйвз, Джонатан Арис, Аманда Эббингтон, Наташа О’Кифф

О фильме:
События разворачиваются в наши дни. Он прошел Афганистан, остался инвалидом. По возвращении в родные края встречается с загадочным, но своеобразным гениальным человеком. Тот в поиске соседа по квартире. Лондон, 2010 год. Происходят необъяснимые убийства. Скотланд-Ярд без понятия, за что хвататься. Существует лишь один человек, который в силах разрешить проблемы и найти ответы на сложные вопросы.



Файл
Качество: WEB-DL 1080p
Формат: MKV
Видео: MPEG-4 AVC, ~ 5500 Кбит/с, 1920x1080, 25.000 fps
Аудио: 48 kHz, AC3 Dolby Digital, 2 ch, ~192.00 kbps avg [Ukr DUB]
Аудио: 48 kHz, AC3 Dolby Digital, 3/2 (L,C,R,l,r) + LFE ch, ~384.00 kbps avg [Eng]

Релиз --
General
Unique ID : 199542456204208106964834108489657983526 (0x961E7AAA19B48F3A8EE1292AB903A226)
Complete name : E:\Sherlock (Season 4) (2017) WEB-DL 1080p [UKR_ENG] [Hurtom]\Sherlock S04E01 (2017) WEB-DL 1080p [UKR_ENG] [Hurtom].mkv
Format : Matroska
Format version : Version 4 / Version 2
File size : 3.55 GiB
Duration : 1h 28mn
Overall bit rate : 5 742 Kbps
Encoded date : UTC 2017-01-02 23:28:41
Writing application : mkvmerge v9.7.0 ('Numbers') 64bit
Writing library : libebml v1.3.4 + libmatroska v1.4.5
Attachements : cover.jpg

Video
ID : 1
Format : AVC
Format/Info : Advanced Video Codec
Format profile : High@L4
Format settings, CABAC : Yes
Format settings, ReFrames : 4 frames
Codec ID : V_MPEG4/ISO/AVC
Duration : 1h 28mn
Bit rate : 5 052 Kbps
Width : 1 920 pixels
Height : 1 080 pixels
Display aspect ratio : 16:9
Frame rate mode : Constant
Frame rate : 25.000 fps
Color space : YUV
Chroma subsampling : 4:2:0
Bit depth : 8 bits
Scan type : Progressive
Bits/(Pixel*Frame) : 0.097
Stream size : 3.12 GiB (88%)
Language : English
Default : Yes
Forced : No
Color range : Limited
Color primaries : BT.709
Transfer characteristics : BT.709
Matrix coefficients : BT.709

Audio #1
ID : 2
Format : AC-3
Format/Info : Audio Coding 3
Mode extension : CM (complete main)
Format settings, Endianness : Big
Codec ID : A_AC3
Duration : 1h 28mn
Bit rate mode : Constant
Bit rate : 192 Kbps
Channel(s) : 2 channels
Channel positions : Front: L R
Sampling rate : 48.0 KHz
Compression mode : Lossy
Stream size : 121 MiB (3%)
Language : Ukrainian
Default : Yes
Forced : Yes

Audio #2
ID : 3
Format : AC-3
Format/Info : Audio Coding 3
Mode extension : CM (complete main)
Format settings, Endianness : Big
Codec ID : A_AC3
Duration : 1h 28mn
Bit rate mode : Constant
Bit rate : 384 Kbps
Channel(s) : 6 channels
Channel positions : Front: L C R, Side: L R, LFE
Sampling rate : 48.0 KHz
Compression mode : Lossy
Stream size : 243 MiB (7%)
Language : English
Default : No
Forced : No

Text #1
ID : 4
Format : UTF-8
Codec ID : S_TEXT/UTF8
Codec ID/Info : UTF-8 Plain Text
Title : Full
Language : English
Default : No
Forced : No

Text #2
ID : 5
Format : UTF-8
Codec ID : S_TEXT/UTF8
Codec ID/Info : UTF-8 Plain Text
Title : SDH
Language : English
Default : No
Forced : No
Внимание! Раздача ведётся путём добавления новых серий; при каждом добавлении создаётся новый торрент. Чтобы начать докачку новой серии, пользователям необходимо сделать следующее:
(1) остановить скачивание,
(2) удалить старый торрент у себя из клиента (старые серии удалять не надо),
(3) скачать новый торрент и запустить его у себя в клиенте вместо старого, при этом указать клиенту путь в старую папку куда и должно происходить скачивание новых серий.
Ваш клиент при этом должен произвести хеширование (проверку) старой папки (если не производит сам - помогите ему сделать это), и будет докачивать только те серии которых у вас ещё нет. Старые серии при этом не удаляются, а продолжают раздаваться!
Eсли вы уже удалили старые серии, то предотвратить повторную закачку старых серий можно, отжав галочку в соответствующих местах при запуске нового торрента. По возможности, желательно не удалять старые серии как можно дольше чтобы релизёр не столько продолжал раздавать старые серии, а смог сконцентрироваться на новых.
piratbit.org



Скачать Шерлок через торрент http://i75.fastpic.ru/big/2016/0102/a9/2b39359fdc6504fffeefb244fd5d6ca9.gif Скачать фильм Шерлок через торрент бесплантно в хорошем качестве О фильме:События разворачиваются в наши дни. Он прошел Афганистан, остался инвалидом. По возвращении в родные края встречается с ... 7.8 10 9
Info! Золотая раздача, скачанное не засчитывается.
Торрент: Зарегистрирован [2017-01-09 10:46] · скачан: 63 раз
Статус: √ проверено
Размер: 8.87 GB
Как cкачать? Как скачать Шерлок через торрент | UTorrent

% Раздел Тема Автор DL S | L
Шерлок [ 2.72 GB ] Шерлок / Sherlock / Сезон: 4 / Серии: 1-2 из 3 [2017 HDTVRip] [Локализованная версия] killermax2013 Скачать
1 | 0
T Шерлок [ 10.89 GB ] Шерлок / Sherlock / Сезон: 4 / Серии: 1-2 из 3 [2017 WEBRip 1080p] + [Subs] killermax2013 Скачать
1 | 0
Шерлок [ 2.62 GB ] Шерлок / Sherlock / Сезон: 4 / Серии: 1-2 из 3 [2017 SATRip] killermax2013 Скачать
1 | 0

28-11-2019 20:33  

Отключить всю рекламу на сайте

09-01-2017 10:47 Шерлок Скачать торрент  

+2piratbit.org



    Дорогой пользователь! Огромная просьба, поблагодарите релизера, оцените раздачу и оставьте свои комментарий, если Вы скачали Шерлок через торрент бесплатно! Внесите свою лепту в развитие PiratBit!
    Комментировать посты могут только пользователи прошедшие не сложную регистрацию
    Показать сообщения:    

    Шерлок через торрент
    Скачать бесплатно Шерлок
    Шерлок скачать торрент
    Шерлок смотреть онлайн
    Cкачать фильм Шерлок бесплатно
    Шерлок скачать торрент в хорошем качестве
    Шерлок смотреть онлайн бесплатно в хорошем качестве


    Вы не можете начинать темы
    Вы не можете отвечать на сообщения
    Вы не можете редактировать свои сообщения
    Вы не можете удалять свои сообщения
    Вы не можете голосовать в опросах
    Вы не можете прикреплять файлы к сообщениям
    Вы можете скачивать файлы