1 сезон

3 сезон

iTunes

1

iTunes

DUB Netflix

iTunes

13

1 сезон

RePack

30

Deluxe

pack

Легкие деньги

ВАЖНО

ИГРА 18+

pack

RePack

MK11

RePack

jed

RePack

fifa19

RePack

RDR2

RePack

NEED FOR SPEED™ PAYBACK

4 сезон

9 сезон

Бесстыжие 9 сезон

Все сериалы

все сериалы на PB.wtf

RePack

FAR CRY 5

Anonymous, добрый вечер, мы не успеваем до 1 числа собрать деньги на оплату серверов, помогите нам пожалуйста в это трудное время. В качестве благодарности мы отключим Вам всю рекламу на сайте (укажите свой ник в строку Ваше имя)!

×
  
Magnet ссылка

Красный залив / Red Billabong (Люк Спарк) [2016 г., боевик, триллер, приключения, HDRip] Любительский многоголосый [@MUZOBOZ@] piratbit.org

Красный залив через торрент piratbit.org

Размер: 1.46 GB | Добавлен: 4 года 5 мес. назад | Торрент скачан:219 раз
Скачать  

04-01-2017 13:35 Красный залив Скачать торрент  

Красный залив / Red Billabong
Год выпуска: 2016
Страна: Австралия
Жанр: боевик, триллер, приключения
Продолжительность: 01:53:22
Перевод: Любительский многоголосый [@MUZOBOZ@]
Субтитры: Отсутствуют

Режиссер: Люк Спарк

Премьера в мире: 25 августа 2016

rating

В ролях: Дэниэл Юинг, Тим Пакок, Джессика Грин, Бен Чишолм, Брюс Картер, Кол Эллиотт, Грегори Дж. Фрайер

Описание: В Австралийской глуши двое братьев узнают о старой семейной тайне. Когда начинают пропадать их друзья, становится очевидно, что их преследует кто-то или что-то из самых ужасных кошмаров. Но что это? Вымысел, легенда? Или же все по-настоящему?

Доп. информация: Присутствует реклама!

Качество: HDRip
Формат: AVI
Видео кодек: XviD
Аудио кодек: AC3
Видео: XviD,720x304, 23,976 fps, 1639 Kbps.
Аудио: AC-3,192 Kbps, 2 ch, 48,0 KHz



General
Complete name : H:\релизы.торрентфайл\Red_Billabong_2016_HDRip.avi
Format : AVI
Format/Info : Audio Video Interleave
File size : 1.46 GiB
Duration : 1h 53mn
Overall bit rate : 1 840 Kbps
Writing application : VirtualDubMod 1.5.10.2 (build 2540/release)
Writing library : VirtualDubMod build 2540/release

Video
ID : 0
Format : MPEG-4 Visual
Format profile : Advanced Simple@L5
Format settings, BVOP : 2
Format settings, QPel : No
Format settings, GMC : No warppoints
Format settings, Matrix : Custom
Codec ID : XVID
Codec ID/Hint : XviD
Duration : 1h 53mn
Bit rate : 1 639 Kbps
Width : 720 pixels
Height : 304 pixels
Display aspect ratio : 2.35:1
Frame rate : 23.976 fps
Color space : YUV
Chroma subsampling : 4:2:0
Bit depth : 8 bits
Scan type : Progressive
Compression mode : Lossy
Bits/(Pixel*Frame) : 0.312
Stream size : 1.30 GiB (89%)
Writing library : XviD 1.2.1 (UTC 2008-12-04)

Audio
ID : 1
Format : AC-3
Format/Info : Audio Coding 3
Mode extension : CM (complete main)
Format settings, Endianness : Big
Codec ID : 2000
Duration : 1h 53mn
Bit rate mode : Constant
Bit rate : 192 Kbps
Channel(s) : 2 channels
Channel positions : Front: L R
Sampling rate : 48.0 KHz
Bit depth : 16 bits
Compression mode : Lossy
Stream size : 156 MiB (10%)
Alignment : Split accross interleaves
Interleave, duration : 42 ms (1.00 video frame)
Interleave, preload duration : 500 ms

piratbit.org



Скачать Красный залив через торрент https://pic1.kartinco.top/images/11/hmqkc.jpg Скачать фильм Красный залив через торрент бесплантно в хорошем качестве Описание: В Австралийской глуши двое братьев узнают о старой семейной тайне. Когда начинают пропадать их друзья, становится очевидно, что ... 9.4 10 14
Торрент: Зарегистрирован [2017-01-04 13:35] · скачан: 219 раз
Статус: T временная
Размер: 1.46 GB
Как cкачать? Как скачать Красный залив через торрент | UTorrent

28-11-2019 20:33  

Отключить всю рекламу на сайте

05-01-2017 06:51 Красный залив Скачать торрент  

Австралийцы не совместно с кем-то, а "в одно лицо" всё же не умеют снимать фильмы. Все хотят иметь своё древнее и ужасное чудовище на фоне какой то местной легенды и австралийцы не исключение, но интересно и красиво снять у них не получилось от слова - никак. Не скажу про адекватность перевода, но сам фильм набор пустых и несвязных реплик и картинок. Скучно, не интересно, уныло и бессвязно. Работа актёров - на три с минусом, работа режиссёра на двойку, работа оператора - твёрдый ноль.
з.ы. И кстати приготовитесь лицезреть немало раз по несколько минут плавающие по всему экрану рекламные строчки.piratbit.org



05-01-2017 16:01 Красный залив Скачать торрент  

Сиськи есть?piratbit.org



    Дорогой пользователь! Огромная просьба, поблагодарите релизера, оцените раздачу и оставьте свои комментарий, если Вы скачали Красный залив через торрент бесплатно! Внесите свою лепту в развитие PiratBit!
    Комментировать посты могут только пользователи прошедшие не сложную регистрацию
    Показать сообщения:    

    Красный залив через торрент
    Скачать бесплатно Красный залив
    Красный залив скачать торрент
    Красный залив смотреть онлайн
    Cкачать фильм Красный залив бесплатно
    Красный залив скачать торрент в хорошем качестве
    Красный залив смотреть онлайн бесплатно в хорошем качестве


    Вы не можете начинать темы
    Вы не можете отвечать на сообщения
    Вы не можете редактировать свои сообщения
    Вы не можете удалять свои сообщения
    Вы не можете голосовать в опросах
    Вы не можете прикреплять файлы к сообщениям
    Вы можете скачивать файлы